<?xml version="1.0" standalone="no"?>
<!DOCTYPE svg PUBLIC "-//W3C//DTD SVG 1.1//EN" "http://www.w3.org/Graphics/SVG/1.1/DTD/svg11.dtd">
<svg xmlns="http://www.w3.org/2000/svg">
<metadata>Copyright (C) 2017 by original authors @ fontello.com</metadata>
<defs>
<font id="fontello" horiz-adv-x="1000" >
<font-face font-family="fontello" font-weight="400" font-stretch="normal" units-per-em="1000" ascent="850" descent="-150" />
<missing-glyph horiz-adv-x="1000" />
<glyph glyph-name="left-open-mini" unicode="&#xe800;" d="M252 180q26-26 0-48-26-26-48 0l-192 194q-24 24 0 50l192 194q22 26 48 0 26-22 0-48l-156-172z" horiz-adv-x="265" />

<glyph glyph-name="right-open-mini" unicode="&#xe801;" d="M13 180l158 170-158 172q-26 26 0 48 26 26 48 0l192-194q24-26 0-50l-192-194q-22-26-48 0-26 22 0 48z" horiz-adv-x="265" />

<glyph glyph-name="up-open-mini" unicode="&#xe802;" d="M62 230q-26-22-50 0-24 24 0 50l196 190q26 26 48 0l196-190q24-26 0-50-24-22-50 0l-170 158z" horiz-adv-x="464" />

<glyph glyph-name="down-open-big" unicode="&#xe803;" d="M63 570l370-356 372 356q22 26 48 0 26-22 0-48l-396-392q-22-22-48 0l-396 392q-26 26 0 48 24 24 50 0z" horiz-adv-x="866" />

<glyph glyph-name="left-open-big" unicode="&#xe804;" d="M452-20q26-26 0-48-26-26-48 0l-392 394q-24 24 0 50l392 394q22 26 48 0 26-22 0-48l-358-372z" horiz-adv-x="465" />

<glyph glyph-name="right-open-big" unicode="&#xe805;" d="M13-20l358 370-358 372q-26 26 0 48 26 26 48 0l392-394q24-26 0-50l-392-394q-22-26-48 0-26 22 0 48z" horiz-adv-x="465" />

<glyph glyph-name="up-open-big" unicode="&#xe806;" d="M804 130l-372 358-370-358q-26-22-50 0-24 24 0 50l396 390q26 26 48 0l396-390q24-26 0-50-26-22-48 0z" horiz-adv-x="864" />

<glyph glyph-name="down-open" unicode="&#xe807;" d="M564 422l-234-224q-18-18-40-18t-40 18l-234 224q-16 16-16 41t16 41q38 38 78 0l196-188 196 188q40 38 78 0 16-16 16-41t-16-41z" horiz-adv-x="580" />

<glyph glyph-name="left-open" unicode="&#xe808;" d="M242 626q14 16 39 16t41-16q38-36 0-80l-186-196 186-194q38-44 0-80-16-16-40-16t-40 16l-226 236q-16 16-16 38 0 24 16 40 206 214 226 236z" horiz-adv-x="341" />

<glyph glyph-name="right-open" unicode="&#xe809;" d="M98 626l226-236q16-16 16-40 0-22-16-38l-226-236q-16-16-40-16t-40 16q-36 36 0 80l186 194-186 196q-36 44 0 80 16 16 41 16t39-16z" horiz-adv-x="340" />

<glyph glyph-name="up-open" unicode="&#xe80a;" d="M564 280q16-16 16-41t-16-41q-38-38-78 0l-196 188-196-188q-40-38-78 0-16 16-16 41t16 41l234 224q16 16 40 16t40-16z" horiz-adv-x="580" />

<glyph glyph-name="down-open-mini" unicode="&#xe80b;" d="M405 470q22 26 48 0 26-22 0-48l-196-192q-22-22-48 0l-196 192q-26 26 0 48 24 24 50 0l170-156z" horiz-adv-x="466" />

<glyph glyph-name="left-thin" unicode="&#xe80c;" d="M240 100l-240 250 240 250 0-160 740 0 0-178-740 0 0-162z" horiz-adv-x="980" />

<glyph glyph-name="right-thin" unicode="&#xe80d;" d="M742 100l0 162-742 0 0 178 742 0 0 160 238-250z" horiz-adv-x="980" />

<glyph glyph-name="down-thin" unicode="&#xe80e;" d="M500 100l-250-240-250 240 162 0 0 740 176 0 0-740 162 0z" horiz-adv-x="500" />

<glyph glyph-name="up-thin" unicode="&#xe80f;" d="M500 602l-162 0 0-742-176 0 0 742-162 0 250 238z" horiz-adv-x="500" />

<glyph glyph-name="arrows-check" unicode="&#xe810;" d="M402 194l375 377-23 23-363-363-176 178-24-26 188-189z m98-282c0 0 0 0 0 0 133 0 260 53 354 147 93 94 146 221 146 354 0 132-53 259-146 353-94 94-221 147-354 147 0 0 0 0 0 0-133 0-260-53-353-147-94-94-147-221-147-353 0-133 53-260 147-354 93-94 220-147 353-147z m-332 833c90 87 207 136 332 136 0 0 0 0 0 0 125 0 242-49 332-136 88-90 137-207 137-332 0-125-49-243-137-332-90-88-207-137-332-137l0 0c0 0 0 0 0 0-125 0-242 49-332 137-88 89-137 207-137 332 0 125 49 242 137 332z" horiz-adv-x="1000" />

<glyph glyph-name="arrows-slim-right" unicode="&#xe811;" d="M832 284l25-24 143 141 0 23-143 141-23-24 113-113-947 0 0-31 947 0z" horiz-adv-x="1000" />

<glyph glyph-name="arrows-slim-left" unicode="&#xe812;" d="M168 541l-25 24-143-141 0-23 143-141 23 24-113 113 947 0 0 31-947 0z" horiz-adv-x="1000" />

<glyph glyph-name="arrows_info" unicode="&#xe813;" d="M500 913c-133 0-260-53-353-147-94-94-147-221-147-353 0-133 53-260 147-354 93-94 220-147 353-147 133 0 260 53 354 147 93 94 146 221 146 354 0 132-53 259-146 353-94 94-221 147-354 147z m332-832c-90-88-207-137-332-137-125 0-242 49-332 137-88 89-137 207-137 332 0 125 49 242 137 332 90 87 207 136 332 136 125 0 242-49 332-136 88-90 137-207 137-332 0-125-49-243-137-332z m-348 566l32 0 0-344-32 0z m0-406l32 0 0-63-32 0z" horiz-adv-x="1000" />

<glyph glyph-name="arrows_question" unicode="&#xe814;" d="M500 913c-133 0-260-53-353-147-94-94-147-221-147-353 0-133 53-260 147-354 93-94 220-147 353-147 133 0 260 53 354 147 93 94 146 221 146 354 0 132-53 259-146 353-94 94-221 147-354 147z m332-832c-90-88-207-137-332-137-125 0-242 49-332 137-88 89-137 207-137 332 0 125 49 242 137 332 90 87 207 136 332 136 125 0 242-49 332-136 88-90 137-207 137-332 0-125-49-243-137-332z m-379 160l31 0 0-63-31 0z m47 437c-94 0-141-31-141-94l32 0c0 30 11 63 109 63 66 0 109-37 109-94 0-43-60-84-86-96-1-1-70-37-70-138l0-16 31 0 0 16c0 82 51 109 55 111 4 2 102 51 102 123 0 74-59 125-141 125z" horiz-adv-x="1000" />

<glyph glyph-name="basic-accelerator" unicode="&#xe815;" d="M500 915c-135 0-260-53-355-147-94-96-147-221-147-355 0-135 53-260 147-354 95-96 220-147 355-147 0 0 0 0 0 0l0 0c277 0 502 225 502 501 0 134-53 259-146 355-96 94-221 147-356 147z m0-973l0-16 0 18c0 0 0 0 0 0-125 0-244 49-332 137-90 89-139 207-139 332 0 127 49 244 139 332 88 89 207 138 332 138 125 0 244-49 332-138 90-88 139-207 139-332 0-260-205-471-471-471z m0 830c-96 0-185-37-254-106-68-68-105-158-105-253l31 0c0 87 33 169 96 232 62 62 144 96 232 96 88 0 170-34 232-96 63-63 96-145 96-232l31 0c0 95-37 185-105 253-68 69-158 106-254 106z m-19-363l-94 107-24-19 96-110c-4-8-6-14-6-21 0-14 6-26 14-34 10-9 21-13 33-13 12 0 23 6 33 13 18 20 18 49 0 67-13 14-35 16-52 10z m31-55c-6-6-18-6-24 0-2 4-4 8-4 12 0 4 2 7 4 11 4 2 8 4 12 4 4 0 8-2 12-4 6-5 6-15 0-23z" horiz-adv-x="1000" />

<glyph glyph-name="basic-alarm" unicode="&#xe816;" d="M922 413c0 232-190 421-422 421-232 0-422-189-422-421 0-166 98-313 238-381l-93-92 23-24 102 104c47-20 97-29 152-29 55 0 106 9 152 29l102-104 23 24-93 92c140 68 238 215 238 381z m-422-391c-215 0-391 176-391 391 0 214 176 390 391 390 215 0 391-176 391-390 0-215-176-391-391-391z m16 578l-32 0 0-197 133-67 16 28-117 58z m-518 193l39-193 229 229-194 39z m205 16l-146-146-24 119 51 50z m531 20l229-229 39 193-74 75z m209-166l-146 146 119 23 51-50z" horiz-adv-x="1000" />

<glyph glyph-name="basic-anchor" unicode="&#xe817;" d="M301 147l-156 47-20-12-47-156 31-8 36 119c62-137 201-225 355-225 156 0 295 90 357 229l51-125 28 12-63 156-17 10-157-47 8-31 121 37c-55-121-176-203-312-209l0 687 125 0 0 32-125 0 0 33c52 8 93 52 93 107 0 61-48 110-109 110-60 0-109-49-109-110 0-55 41-99 93-107l0-33-125 0 0-32 125 0 0-687c-136 6-257 88-312 209l121-37z m121 656c0 43 35 78 78 78 43 0 78-35 78-78 0-43-35-78-78-78-43 0-78 35-78 78z" horiz-adv-x="1000" />

<glyph glyph-name="basic-book" unicode="&#xe818;" d="M844 913l-750 0 0-1001 750 0z m-719-32l94 0 0-937-94 0z m688-937l-563 0 0 937 563 0z m-500 750l437 0 0-31-437 0z m0-94l437 0 0-31-437 0z" horiz-adv-x="1000" />

<glyph glyph-name="basic-calculator" unicode="&#xe819;" d="M0-88l1000 0 0 1001-1000 0z m31 969l938 0 0-937-938 0z m266-93l-31 0 0-141-141 0 0-31 141 0 0-141 31 0 0 141 141 0 0 31-141 0z m266-141l312 0 0-31-312 0z m-168-316l-114-116-113 116-23-24 115-113-115-113 23-24 113 115 114-115 23 24-115 113 115 113z m168-75l312 0 0-31-312 0z m0-93l312 0 0-32-312 0z" horiz-adv-x="1000" />

<glyph glyph-name="basic-calendar" unicode="&#xe81a;" d="M828 834l-125 0 0-62-406 0 0 62-125 0 0-62-172 0 0-781 1000 0 0 781-172 0z m-94-31l63 0 0-94-63 0z m-531 0l63 0 0-94-63 0z m-172-781l0 594 938 0 0-594z m938 719l0-94-938 0 0 94 141 0 0-63 125 0 0 63 406 0 0-63 125 0 0 63z m-828-375l187 0 0 187-187 0z m31 156l125 0 0-125-125 0z m-31-438l187 0 0 188-187 0z m31 157l125 0 0-125-125 0z m500 125l187 0 0 187-187 0z m31 156l125 0 0-125-125 0z m-31-438l187 0 0 188-187 0z m31 157l125 0 0-125-125 0z m-297 125l188 0 0 187-188 0z m32 156l125 0 0-125-125 0z m-32-438l188 0 0 188-188 0z m32 157l125 0 0-125-125 0z" horiz-adv-x="1000" />

<glyph glyph-name="basic-cards-diamonds" unicode="&#xe81b;" d="M496 735l-51 105-449-232 293-639 211 98 195-98 311 654-451 233z m-191-723l-270 580 395 205 49-97-250-498 234-118z m658 596l-283-596-408 205 298 596z m-430-360l201 92-17 221-201-92z m157 266l13-154-142-65-14 155z m-110 266l27-16-15-31-27 15z m-484-235l-16 32 27 15 16-31z m574-500l-27 16 15 31 28-15z" horiz-adv-x="1000" />

<glyph glyph-name="basic-case" unicode="&#xe81c;" d="M1000 647l-346 0c-6 37-31 125-154 125-123 0-148-88-154-125l-346 0 0-594 1000 0z m-500 94c96 0 117-65 123-94l-246 0c4 29 27 94 123 94z m469-125l0-157-938 0 0 157z m-531-188l125 0 0-62-125 0z m-407-344l0 344 375 0 0-94 188 0 0 94 375 0 0-344z" horiz-adv-x="1000" />

<glyph glyph-name="basic-chronometer" unicode="&#xe81d;" d="M500-88c121 0 234 47 320 133 86 86 133 200 133 321 0 121-47 234-133 320-82 82-189 129-304 133l0 62 78 0 0 32-188 0 0-32 78 0 0-62c-115-4-222-51-304-133-86-86-133-199-133-320 0-121 47-235 133-321 86-86 199-133 320-133z m-299 753c76 76 176 119 283 123l0-47 32 0 0 47c107-4 207-47 283-123 76-77 119-176 123-284l-47 0 0-31 47 0c-4-107-47-207-123-283-76-76-176-119-283-123l0 47-32 0 0-47c-107 4-207 47-283 123-76 76-119 176-123 283l47 0 0 31-47 0c4 108 47 207 123 284z m37-16l45-43-23-24-43 45z m502-500l43-45-21-22-45 43z m22 500l21-22-43-45-23 24z m-500-500l21-24-45-43-21 22z m238 154c35 0 63 28 63 63 0 29-20 52-47 60l0 158-32 0 0-158c-27-8-46-31-46-60 0-35 27-63 62-63z m0 94c18 0 31-14 31-31 0-18-13-32-31-32-18 0-31 14-31 32 0 17 13 31 31 31z" horiz-adv-x="1000" />

<glyph glyph-name="basic-clessidre" unicode="&#xe81e;" d="M266 209l0-203-63 0 0-94 594 0 0 94-47 0 0 203c0 49-80 108-213 196 133 88 213 146 213 195l0 219 47 0 0 94-594 0 0-94 63 0 0-219c0-49 80-107 213-195-133-88-213-147-213-196z m500-265l-532 0 0 31 532 0z m-532 937l532 0 0-31-532 0z m63-281l0 219 422 0 0-219c0-37-115-113-211-176-96 63-211 139-211 176z m211-215c96-62 211-138 211-176l0-203-422 0 0 203c0 38 115 114 211 176z" horiz-adv-x="1000" />

<glyph glyph-name="basic-clock" unicode="&#xe81f;" d="M500 913c-133 0-260-53-353-147-94-94-147-221-147-353 0-133 53-260 147-354 93-94 220-147 353-147 133 0 260 53 354 147 93 94 146 221 146 354 0 132-53 259-146 353-94 94-221 147-354 147z m332-832c-90-88-207-137-332-137-125 0-242 49-332 137-88 89-137 207-137 332 0 125 49 242 137 332 90 87 207 136 332 136 125 0 242-49 332-136 88-90 137-207 137-332 0-125-49-243-137-332z m-316 644l-32 0 0-318 145-147 23 24-136 134z m-453-297l62 0 0-31-62 0z m812 0l63 0 0-31-63 0z m-391-390l32 0 0-63-32 0z m0 812l32 0 0-62-32 0z" horiz-adv-x="1000" />

<glyph glyph-name="basic-compass" unicode="&#xe820;" d="M500-91c123 0 236 46 324 132 86 88 133 202 133 325 0 123-47 236-133 324-64 62-144 105-230 123 0 2 0 4 0 6 0 51-43 94-94 94-51 0-94-43-94-94 0-2 0-4 0-6-86-18-166-61-230-123-86-88-133-201-133-324 0-123 47-237 133-325 88-86 201-132 324-132z m0 972c35 0 63-27 63-62-22 4-41 4-63 4-21 0-41 0-62-4 0 35 27 62 62 62z m-301-215c76 79 178 122 285 125l0-66 32 0 0 66c107-3 209-46 285-125 78-76 121-177 125-285l-67 0 0-31 67 0c-4-107-47-209-125-285-76-78-178-121-285-125l0 66-32 0 0-66c-107 4-209 47-285 125-78 76-121 178-125 285l67 0 0 31-67 0c4 108 47 209 125 285z m385-392l8 8 125 297-20 19-297-125-7-8-110-281 20-19z m-12 41l-138 139 240 101z m-160 117l139-139-227-87z" horiz-adv-x="1000" />

<glyph glyph-name="basic-cup" unicode="&#xe821;" d="M766 491l0 156c138 10 140 154 140 156l0 16-140 0 0 94-532 0 0-94-140 0 0-16c0-2 2-146 140-156l0-156c0-80 102-137 250-141l0-406-171 0 0-32 375 0 0 32-172 0 0 406c148 4 250 61 250 141z m107 297c-4-32-23-102-107-110l0 110z m-746 0l107 0 0-110c-84 8-103 78-107 110z m139-297l0 390 468 0 0-390c0-55-80-110-234-110-154 0-234 55-234 110z" horiz-adv-x="1000" />

<glyph glyph-name="basic-display" unicode="&#xe822;" d="M0 100l484 0 0-156-140 0 0-32 312 0 0 32-140 0 0 156 484 0 0 672-1000 0z m969 31l-938 0 0 94 938 0z m0 610l0-485-938 0 0 485z" horiz-adv-x="1000" />

<glyph glyph-name="basic-download" unicode="&#xe823;" d="M484 506l0-463-97 100-24-25 125-127 24 0 125 127-24 23-97-98 0 463z m-109-234l-344 0 0 531 938 0 0-531-344 0 0-31 375 0 0 593-1000 0 0-593 375 0z" horiz-adv-x="1000" />

<glyph glyph-name="basic-eye" unicode="&#xe824;" d="M500 163c316 0 490 230 496 240l8 10-8 9c-6 10-180 241-496 241-316 0-490-231-496-241l-8-9 8-10c6-10 180-240 496-240z m0 468c266 0 428-175 465-218-37-43-199-219-465-219-266 0-428 176-465 219 37 43 199 218 465 218z m0-343c68 0 125 56 125 125 0 68-57 125-125 125-68 0-125-57-125-125 0-69 57-125 125-125z m0 218c51 0 94-43 94-93 0-51-43-94-94-94-51 0-94 43-94 94 0 50 43 93 94 93z" horiz-adv-x="1000" />

<glyph glyph-name="basic-flag" unicode="&#xe825;" d="M203 834l0 79-31 0 0-1001 31 0 0 516 651 0-102 203 102 203z m600-375l-600 0 0 344 600 0-86-172z" horiz-adv-x="1000" />

<glyph glyph-name="basic-gear" unicode="&#xe826;" d="M830 596l98 98-147 146-97-97-75 25 0 145-218 0 0-145-75-25-97 97-147-146 98-98-25-74-145 0 0-219 145 0 25-74-98-98 147-146 97 97 75-25 0-145 218 0 0 145 75 25 97-97 147 146-98 98 26 74 144 0 0 219-144 0z m139-262l-137 0-37-113 90-90-104-103-90 90-113-37 0-137-156 0 0 137-113 37-90-90-104 103 90 90-37 113-137 0 0 157 137 0 37 113-90 90 104 103 90-90 113 38 0 136 156 0 0-136 113-38 90 90 104-103-90-90 37-113 137 0z m-469 188c-60 0-109-49-109-109 0-61 49-110 109-110 61 0 109 49 109 110 0 60-48 109-109 109z m0-188c-43 0-78 36-78 79 0 43 35 78 78 78 43 0 78-35 78-78 0-43-35-79-78-79z" horiz-adv-x="1000" />

<glyph glyph-name="basic_folder" unicode="&#xe827;" d="M891 584l-467 0-111 110-313 0 0-641 891 0z m-32-500l-828 0 0 579 270 0 111-110 447 0z m-437 735l-313 0 0-110 32 0 0 79 269 0 112-110 447 0 0-469-63 0 0-31 94 0 0 531-467 0z" horiz-adv-x="1000" />

<glyph glyph-name="basic_geolocalize" unicode="&#xe828;" d="M609 569c0 60-48 109-109 109-60 0-109-49-109-109 0-61 49-110 109-110 61 0 109 49 109 110z m-187 0c0 43 35 78 78 78 43 0 78-35 78-78 0-43-35-78-78-78-43 0-78 35-78 78z m78-664l12 13c13 16 334 393 332 639 0 195-154 356-344 356-189 0-344-161-344-356 0-246 319-623 332-639z m0 976c172 0 313-144 313-324 0-209-254-533-313-604-59 71-312 395-312 604 0 180 140 324 312 324z" horiz-adv-x="1000" />

<glyph glyph-name="basic_geolocalize-1" unicode="&#xe829;" d="M578 616c0 43-35 78-78 78-43 0-78-35-78-78 0-43 35-78 78-78 43 0 78 35 78 78z m-125 0c0 25 22 47 47 47 25 0 47-22 47-47 0-26-22-47-47-47-25 0-47 21-47 47z m47-463l12 15c8 10 207 256 207 416 0 129-100 235-219 235-121 0-219-106-219-235 0-160 198-406 207-416z m0 635c104 0 188-92 188-204 0-127-145-324-188-380-43 56-187 253-187 380 0 112 84 204 187 204z m172-438l0-31 131 0 154-281-914 0 154 281 131 0 0 31-150 0-190-344 1024 0-190 344z" horiz-adv-x="1000" />

<glyph glyph-name="basic_globe" unicode="&#xe82a;" d="M906 475c0-217-189-406-406-406-144 0-189 56-191 56l-24-19c2-2 49-65 199-68l0-94-140 0 0-32 312 0 0 32-140 0 0 94c226 9 422 209 422 437 0 232-206 438-438 438l0-32c217 0 406-189 406-406z m-406-328c182 0 328 146 328 328 0 182-146 328-328 328-182 0-328-146-328-328 0-182 146-328 328-328z m0 625c164 0 297-133 297-297 0-164-133-297-297-297-164 0-297 133-297 297 0 164 133 297 297 297z" horiz-adv-x="1000" />

<glyph glyph-name="basic_headset" unicode="&#xe82b;" d="M828 491l-15 0 0 78c0 2-4 265-313 265-309 0-312-263-312-265l0-78-16 0c-96 0-172-76-172-172 0-96 76-172 172-172l47 0 0 422c0 10 4 234 281 234 277 0 281-224 281-234l0-475-203-80 0 55-156 0 0-94 144 0 247 100 0 72 15 0c96 0 172 76 172 172 0 96-76 172-172 172z m-640-313l-16 0c-78 0-141 63-141 141 0 78 63 140 141 140l16 0z m265-172l0 32 94 0 0-32z m375 172l-15 0 0 281 15 0c78 0 141-62 141-140 0-78-63-141-141-141z" horiz-adv-x="1000" />

<glyph glyph-name="basic-heart" unicode="&#xe82c;" d="M750 850c-115 0-213-64-250-154-37 90-135 154-250 154-156 0-250-135-250-266 0-134 84-277 248-425 121-110 242-182 244-182l8-4 8 4c2 0 123 72 244 182 164 148 248 291 248 425 0 131-94 266-250 266z m-250-842c-62 39-469 297-469 576 0 116 82 235 219 235 113 0 234-78 234-203l32 0c0 125 121 203 234 203 137 0 219-119 219-235 0-279-406-537-469-576z" horiz-adv-x="1000" />

<glyph glyph-name="basic_helm" unicode="&#xe82d;" d="M516-88l0 110c109 4 209 55 277 131l119-96 20 24-119 97c48 65 78 147 78 235 0 85-28 164-75 228l116 88-20 23-115-87c-68 82-168 134-281 138l0 110-32 0 0-110c-109-4-209-55-277-131l-119 96-20-23 120-98c-49-65-79-147-79-234 0-86 28-165 75-229l-116-88 20-23 115 88c69-82 168-135 281-139l0-110z m-125 501c0 60 49 109 109 109 61 0 109-49 109-109 0-61-48-110-109-110-60 0-109 49-109 110z m125-360l0 219c31 4 60 18 82 39l170-137c-63-70-153-117-252-121z m343 360c0-81-27-155-72-215l-170 136c16 24 24 49 24 79 0 27-8 54-24 76l174 133c43-59 68-131 68-209z m-86 234l-175-133c-22 20-51 35-82 39l0 219c103-4 193-53 257-125z m-289 125l0-219c-31-4-60-17-82-39l-170 137c63 70 153 117 252 121z m-343-359c0 80 27 154 72 214l170-136c-16-24-24-49-24-78 0-28 8-55 24-77l-174-132c-43 58-68 130-68 209z m86-235l175 133c22-20 51-35 82-39l0-219c-103 4-193 53-257 125z" horiz-adv-x="1000" />

<glyph glyph-name="basic_home" unicode="&#xe82e;" d="M-6 381l162 0 0-469 219 0 0 251 219 0 0-251 219 0 0 469 193 0-506 506z m787 32l0-469-156 0 0 250-281 0 0-250-156 0 0 469-120 0 432 431 432-431z" horiz-adv-x="1000" />

<glyph glyph-name="basic-support" unicode="&#xe82f;" d="M500 913c-275 0-500-225-500-500 0-276 225-501 500-501 275 0 500 225 500 501 0 275-225 500-500 500z m455-391l-230 0c-26 51-65 90-116 115l0 231c170-41 305-176 346-346z m14-109c0-28-2-53-6-79l-225 0c8 26 12 51 12 79 0 27-4 52-12 78l225 0c4-26 6-51 6-78z m-469-219c-121 0-219 97-219 219 0 121 98 218 219 218 121 0 219-97 219-218 0-122-98-219-219-219z m-238 140l-225 0c-4 26-6 51-6 79 0 27 2 52 6 78l225 0c-8-26-12-51-12-78 0-28 4-53 12-79z m316 541l0-224c-25 8-51 12-78 12-27 0-53-4-78-12l0 224c25 4 51 6 78 6 27 0 53-2 78-6z m-187-7l0-231c-51-25-90-64-116-115l-230 0c41 170 176 305 346 346z m-346-565l230 0c26-51 65-90 116-115l0-231c-170 41-305 176-346 346z m377-353l0 224c25-8 51-11 78-11 27 0 53 3 78 11l0-224c-25-4-51-6-78-6-27 0-53 2-78 6z m187 7l0 231c51 25 90 64 116 115l230 0c-41-170-176-305-346-346z" horiz-adv-x="1000" />

<glyph glyph-name="basic-lightbulb" unicode="&#xe830;" d="M625-88l0 94 31 0 0 94 32 0 0 94 0 86c97 64 156 172 156 289 0 189-154 344-344 344-189 0-344-155-344-344 0-117 61-227 157-289l0-180 31 0 0-94 31 0 0-94z m-31 32l-188 0 0 62 188 0z m-258 357c-92 57-148 158-148 268 0 172 140 312 312 312 172 0 313-140 313-312 0-110-55-209-149-266l-8-6 0-72-76 0 45 295-31 4-2-12-43-31-49 47-49-47-43 31-2 12-31-4 45-295-76 0 0 70z m115-76l-37 244 41-31 45 47 45-47 41 31-37-244z m-107-31l312 0 0-63-312 0z m31-94l250 0 0-62-250 0z" horiz-adv-x="1000" />

<glyph glyph-name="basic_link" unicode="&#xe831;" d="M828 913c0 0 0 0 0 0-37 0-74-12-103-36l-205-203c-34-35-51-78-51-121 0-23 4-47 13-68 2-2 2-4 4-6l28 14c0 0-2 2-2 4l-14-6 14 6c-8 17-12 37-12 56 0 35 16 70 43 98l201 203c26 18 53 27 84 27 0 0 0 0 0 0 37 0 72-13 100-41 25-27 41-62 41-99 0-30-10-59-28-84l-187-186 0-2c-27-35-68-56-113-56 0 0 0 0 0 0-20 0-39 3-57 11l-12-29c22-10 45-14 69-14 0 0 0 0 0 0 54 0 103 26 136 69l188 185 0 2c23 31 35 67 35 104 0 47-18 90-51 121-33 33-76 51-121 51z m-340-584c8-18 12-38 12-57 0-31-10-59-27-84l-188-186 0-2c-27-37-68-56-113-56 0 0 0 0 0 0-37 0-72 13-100 41-25 27-41 62-41 99 0 36 16 71 43 98l201 203c26 18 53 28 84 28 0 0 0 0 0 0 20 0 39-4 57-12l12 29c-22 10-45 14-69 14 0 0 0 0 0 0-37 0-72-12-103-35l-205-205c-33-34-51-77-51-120 0-46 18-90 51-121 33-33 76-51 121-51 0 0 0 0 0 0 55 0 103 26 137 69l187 185 0 2c24 32 35 67 35 104 0 23-4 47-13 68z m164 212l-281-281-23 24 281 281z" horiz-adv-x="1000" />

<glyph glyph-name="basic-lock" unicode="&#xe832;" d="M766 647c0 146-119 266-266 266-146 0-266-120-266-266l0-234-125 0 0-501 782 0 0 501-125 0z m-500 0c0 129 105 234 234 234 129 0 234-105 234-234l0-234-468 0z m593-703l-718 0 0 437 718 0z m-375 158l0-49 32 0 0 49c35 8 62 39 62 76 0 43-35 78-78 78-43 0-78-35-78-78 0-37 27-68 62-76z m16 123c25 0 47-21 47-47 0-25-22-47-47-47-25 0-47 22-47 47 0 26 22 47 47 47z" horiz-adv-x="1000" />

<glyph glyph-name="basic-lock-open" unicode="&#xe833;" d="M266 647c0 129 105 234 234 234 129 0 234-105 234-234l0-47 32 0 0 47c0 146-119 266-266 266-146 0-266-120-266-266l0-234-125 0 0-501 782 0 0 501-625 0z m593-703l-718 0 0 437 718 0z m-375 158l0-49 32 0 0 49c35 8 62 39 62 76 0 43-35 78-78 78-43 0-78-35-78-78 0-37 27-68 62-76z m16 123c25 0 47-21 47-47 0-25-22-47-47-47-25 0-47 22-47 47 0 26 22 47 47 47z" horiz-adv-x="1000" />

<glyph glyph-name="basic_mouse" unicode="&#xe834;" d="M500 913c-146 0-266-120-266-266l0-469c0-146 120-266 266-266 147 0 266 120 266 266l0 469c0 146-119 266-266 266z m234-735c0-129-105-234-234-234-129 0-234 105-234 234l0 469c0 129 105 234 234 234 129 0 234-105 234-234z m-250 578l32 0 0-125-32 0z" horiz-adv-x="1000" />

<glyph glyph-name="basic_magnifier" unicode="&#xe835;" d="M328 256c84 0 162 34 221 86l70-70-47-47 319-318 115 115-318 318-47-47-71 71c53 58 86 136 86 220 0 182-146 329-328 329-181 0-328-147-328-329 0-181 147-328 328-328z m635-234l-72-72-276 275 73 72z m-635 859c164 0 297-133 297-297 0-164-133-296-297-296-164 0-297 132-297 296 0 164 133 297 297 297z" horiz-adv-x="1000" />

<glyph glyph-name="basic-key" unicode="&#xe836;" d="M797 616c-111 0-203-92-203-203 0-112 92-204 203-204 111 0 203 92 203 204 0 111-92 203-203 203z m0-375c-96 0-172 76-172 172 0 95 76 171 172 171 96 0 172-76 172-171 0-96-76-172-172-172z m-797 187l0-31 78 0 0-141 31 0 0 141 94 0 0-78 31 0 0 78 360 0 0 31z" horiz-adv-x="1000" />

<glyph glyph-name="basic-laptop" unicode="&#xe837;" d="M891 741l-782 0 0-532-109 0 0-125 1000 0 0 125-109 0z m-750-32l718 0 0-500-718 0z m828-531l0-62-938 0 0 62z m-500 500l62 0 0-31-62 0z" horiz-adv-x="1000" />

<glyph glyph-name="basic-mouse-2" unicode="&#xe838;" d="M500 913c-146 0-266-120-266-266l0-469c0-146 120-266 266-266 147 0 266 120 266 266l0 469c0 146-119 266-266 266z m-16-32l0-281-218 0 0 47c0 123 97 225 218 234z m16-937c-129 0-234 105-234 234l0 391 468 0 0-391c0-129-105-234-234-234z m234 656l-218 0 0 281c121-9 218-111 218-234z" horiz-adv-x="1000" />

<glyph glyph-name="basic-mail" unicode="&#xe839;" d="M1000 725l-1000 0 0-609 1000 0z m-68-31l-432-278-432 278z m-901-547l0 533 469-303 469 303 0-533z" horiz-adv-x="1000" />

<glyph glyph-name="basic-mail-multiple" unicode="&#xe83a;" d="M844 647l-844 0 0-531 844 0z m-74-31l-348-201-350 201z m-739-469l0 457 391-227 391 227 0-457z m110 516l31 0 0 93 797 0 0-468-110 0 0-32 141 0 0 532-859 0z" horiz-adv-x="1000" />

<glyph glyph-name="basic-mail-open-text" unicode="&#xe83b;" d="M563 788l140 0 0-32-140 0z m-266-125l406 0 0-32-406 0z m0-125l406 0 0-32-406 0z m547 375l-688 0 0-331-156-66 0-604 1000 0 0 604-156 66z m-31-32l0-465-313-195-312 195 0 465z m-657-445l-107 68 107 45z m-125-492l0 535 469-295 469 295 0-535z m920 560l-107-68 0 113z" horiz-adv-x="1000" />

<glyph glyph-name="basic-map" unicode="&#xe83c;" d="M344 852l-344-131 0-754 344 131 312-125 344 131 0 754-344-131z m15-41l282-111 0-686-282 111z m-328-113l297 113 0-684-297-113z m938-571l-297-113 0 684 297 113z" horiz-adv-x="1000" />

<glyph glyph-name="basic-notebook" unicode="&#xe83d;" d="M844-88l0 1001-688 0 0-110-47 0 0-31 47 0 0-94-47 0 0-31 47 0 0-94-47 0 0-31 47 0 0-94-47 0 0-31 47 0 0-94-47 0 0-31 47 0 0-94-47 0 0-31 47 0 0-94-47 0 0-31 47 0 0-110z m-31 32l-157 0 0 937 157 0z m-625 203l46 0 0 31-46 0 0 94 46 0 0 31-46 0 0 94 46 0 0 31-46 0 0 94 46 0 0 31-46 0 0 94 46 0 0 31-46 0 0 94 46 0 0 31-46 0 0 78 437 0 0-937-437 0 0 78 46 0 0 31-46 0z" horiz-adv-x="1000" />

<glyph glyph-name="basic-paperplane" unicode="&#xe83e;" d="M10 457l-2-27 340-170 170-340 27 2 453 969-12 8-7 12z m900 387l-554-553-305 153z m-379-881l-152 305 553 555z" horiz-adv-x="1000" />

<glyph glyph-name="basic-photo" unicode="&#xe83f;" d="M602 772l-204 0-125-156-273 0 0-532 1000 0 0 532-273 0z m-571-188l94 0 0-468-94 0z m938-468l-813 0 0 468 133 0 125 157 172 0 125-157 258 0z m-469 375c-78 0-141-63-141-141 0-78 63-141 141-141 78 0 141 63 141 141 0 78-63 141-141 141z m0-250c-60 0-109 49-109 109 0 61 49 109 109 109 61 0 109-48 109-109 0-60-48-109-109-109z" horiz-adv-x="1000" />

<glyph glyph-name="basic-picture" unicode="&#xe840;" d="M0 69l1000 0 0 687-1000 0z m31 31l0 70 344 299 190-189 93 125 311-266 0-39z m938 625l0-545-315 272-93-125-186 185-344-299 0 512z m-172-250c51 0 94 43 94 94 0 51-43 94-94 94-51 0-94-43-94-94 0-51 43-94 94-94z m0 156c35 0 62-27 62-62 0-35-27-63-62-63-35 0-63 28-63 63 0 35 28 62 63 62z" horiz-adv-x="1000" />

<glyph glyph-name="basic-picture-2" unicode="&#xe841;" d="M844 678l-844 0 0-656 844 0z m-31-31l0-545-202 174-154-94-223 254-203-205 0 416z m-782-594l0 135 203 201 215-246 158 94 206-176 0-8z m110 641l31 0 0 78 797 0 0-594-110 0 0-31 141 0 0 656-859 0z m484-328c51 0 94 43 94 93 0 51-43 94-94 94-51 0-94-43-94-94 0-50 43-93 94-93z m0 156c35 0 63-27 63-63 0-35-28-62-63-62-35 0-62 27-62 62 0 36 27 63 62 63z" horiz-adv-x="1000" />

<glyph glyph-name="basic-pin" unicode="&#xe842;" d="M500 832c-94 0-170-76-170-169l31 0c0 76 63 138 139 138z m16-920l0 501c131 9 234 117 234 250 0 138-111 250-250 250-139 0-250-112-250-250 0-133 104-241 234-250l0-501z m-235 751c0 121 98 218 219 218 121 0 219-97 219-218 0-122-98-219-219-219-121 0-219 97-219 219z" horiz-adv-x="1000" />

<glyph glyph-name="basic-pin-2" unicode="&#xe843;" d="M236 456l-19-122 267 0 0-422 32 0 0 422 267 0-19 122-141 60-29 250 78 61 0 86-344 0 0-86 78-61-29-250z m202 322l-79 64 0 39 282 0 0-39-78-64 33-281 140-65 12-66-496 0 12 66 140 65z" horiz-adv-x="1000" />

<glyph glyph-name="basic-postcard" unicode="&#xe844;" d="M1000 725l-1000 0 0-672 1000 0z m-31-641l-938 0 0 610 938 0z m-63 547l-156 0 0-187 156 0z m-31-156l-94 0 0 125 94 0z m-281 156l31 0 0-484-31 0z m-500-31l437 0 0-31-437 0z m0-94l375 0 0-31-375 0z m0-93l406 0 0-32-406 0z" horiz-adv-x="1000" />

<glyph glyph-name="basic-printer" unicode="&#xe845;" d="M766 913l-532 0 0-297-234 0 0-532 234 0 0-172 532 0 0 172 234 0 0 532-234 0z m-500-32l468 0 0-265-468 0z m468-937l-468 0 0 344 468 0z m235 640l0-468-203 0 0 203-532 0 0-203-203 0 0 468z m-875-78l62 0 0-31-62 0z m94 0l62 0 0-31-62 0z m156-312l312 0 0-31-312 0z m0-125l312 0 0-31-312 0z" horiz-adv-x="1000" />

<glyph glyph-name="basic-settings" unicode="&#xe846;" d="M641 325l-65 66 117 115 57 0c78 0 172 37 172 211l0 26-137-65-49 49 61 139-24 0c-173 0-210-94-210-172l0-57-118-117-189 189 51 51-184 110-49-49 110-184 50 51 190-191-381-385-2-4-31-106 47-45 107 28 389 383 66-65-47-47 319-318 115 115-318 319z m-528 492l14 14 129-79-65-64z m34-805l-82-19-20 17 23 82 526 533 0 69c0 88 51 133 156 138l-49-113 76-80 114 53c-8-102-55-154-141-154l-68 0z m744-31l-276 275 73 73 275-276z" horiz-adv-x="1000" />

<glyph glyph-name="basic-share" unicode="&#xe847;" d="M797 913c-111 0-203-92-203-204 0-43 13-82 35-113l-338-217c-31 32-72 49-119 49-96 0-172-76-172-172 0-95 76-172 172-172 64 0 121 36 150 88l287-113c0-2 0-4 0-6 0-78 63-141 141-141 78 0 141 63 141 141 0 78-63 141-141 141-64 0-119-45-135-104l-281 112c6 17 10 35 10 54 0 37-12 73-33 100l337 215c38-39 90-65 149-65 111 0 203 92 203 203 0 112-92 204-203 204z m-47-750c61 0 109-49 109-110 0-60-48-109-109-109-60 0-109 49-109 109 0 61 49 110 109 110z m-578-47c-78 0-141 62-141 140 0 78 63 141 141 141 78 0 141-63 141-141 0-78-63-140-141-140z m625 422c-96 0-172 76-172 171 0 96 76 172 172 172 96 0 172-76 172-172 0-95-76-171-172-171z" horiz-adv-x="1000" />

<glyph glyph-name="basic-sheet" unicode="&#xe848;" d="M125 684l0-772 750 0 0 1001-521 0z m219 176l0-166-166 0z m500-916l-688 0 0 719 219 0 0 218 469 0z" horiz-adv-x="1000" />

<glyph glyph-name="basic-sheet-txt " unicode="&#xe849;" d="M125-88l750 0 0 1001-521 0-229-229z m719 32l-688 0 0 719 219 0 0 218 469 0z m-666 750l166 166 0-166z m322 15l219 0 0-31-219 0z m-219-156l438 0 0-31-438 0z m0-156l438 0 0-31-438 0z m0-156l438 0 0-32-438 0z m0-157l438 0 0-31-438 0z" horiz-adv-x="1000" />

<glyph glyph-name="basic-signs" unicode="&#xe84a;" d="M484 272l0-328-109 0 0-32 250 0 0 32-109 0 0 328 156 0 0 219-156 0 0 31 349 0 127 109-127 110-349 0 0 62-32 0 0-62-156 0 0-219 156 0 0-31-349 0-127-110 127-109z m-125 437l495 0 91-78-91-78-495 0z m-212-250l494 0 0-156-494 0-92 78z" horiz-adv-x="1000" />

<glyph glyph-name="basic-smartphone" unicode="&#xe84b;" d="M234-88l532 0 0 1001-532 0z m32 32l0 156 468 0 0-156z m0 187l0 625 468 0 0-625z m468 750l0-93-468 0 0 93z m-296-31l125 0 0-31-125 0z m62-781c-25 0-47-22-47-47 0-26 22-47 47-47 25 0 47 21 47 47 0 25-22 47-47 47z m0-63c-8 0-16 8-16 16 0 8 8 16 16 16 8 0 16-8 16-16 0-8-8-16-16-16z" horiz-adv-x="1000" />

<glyph glyph-name="basic-spread-text" unicode="&#xe84c;" d="M0 836l0-781 500-64 500 64 0 781-500-64z m31-35l453-58 0-719-453 58z m938-719l-453-58 0 719 453 58z m-858 596l297-31-4-31-297 31z m293-219l-297 32 4 31 297-31z m0-156l-297 31 4 32 297-32z m0-156l-297 31 4 31 297-31z m485 531l4-31-297-31-4 31z m0-156l4-31-297-32-4 32z m0-156l4-32-297-31-4 31z m-293-219l-4 31 297 31 4-31z" horiz-adv-x="1000" />

<glyph glyph-name="basic-tablet" unicode="&#xe84d;" d="M844 913l-688 0 0-1001 688 0z m-31-32l0-93-625 0 0 93z m0-125l0-625-625 0 0 625z m-625-812l0 156 625 0 0-156z m250 906l125 0 0-31-125 0z m62-781c-25 0-47-22-47-47 0-26 22-47 47-47 25 0 47 21 47 47 0 25-22 47-47 47z m0-63c-8 0-16 8-16 16 0 8 8 16 16 16 8 0 16-8 16-16 0-8-8-16-16-16z" horiz-adv-x="1000" />

<glyph glyph-name="basic-target" unicode="&#xe84e;" d="M500 913c-133 0-260-53-353-147-94-94-147-221-147-353 0-133 53-260 147-354 93-94 220-147 353-147 133 0 260 53 354 147 93 94 146 221 146 354 0 132-53 259-146 353-94 94-221 147-354 147z m332-832c-90-88-207-137-332-137-125 0-242 49-332 137-88 89-137 207-137 332 0 125 49 242 137 332 90 87 207 136 332 136 125 0 242-49 332-136 88-90 137-207 137-332 0-125-49-243-137-332z m-332 707c-100 0-195-40-266-110-70-70-109-166-109-265 0-100 39-196 109-266 71-70 166-109 266-109 100 0 195 39 266 109 70 70 109 166 109 266 0 99-39 195-109 265-71 70-166 110-266 110z m242-618c-64-66-150-101-242-101-92 0-178 35-242 101-67 65-102 151-102 243 0 91 35 177 102 242 64 66 150 101 242 101 92 0 178-35 242-101 67-65 102-151 102-242 0-92-35-178-102-243z m-242 493c-66 0-129-26-178-73-47-49-72-111-72-177 0-67 25-129 72-178 49-47 112-72 178-72 66 0 129 25 178 72 47 49 72 111 72 178 0 66-25 128-72 177-49 47-112 73-178 73z m154-405c-41-41-95-64-154-64-59 0-113 23-154 64-41 41-65 96-65 155 0 58 24 113 65 154 41 41 95 64 154 64 59 0 113-23 154-64 41-41 65-96 65-154 0-59-24-114-65-155z m-154 280c-33 0-64-14-88-38-23-23-37-54-37-87 0-34 14-65 37-88 24-24 55-37 88-37 33 0 65 13 88 37 23 23 37 54 37 88 0 33-14 64-37 87-23 24-55 38-88 38z m66-192c-17-17-41-27-66-27-25 0-49 10-66 27-18 18-28 41-28 67 0 25 10 48 28 66 17 18 41 27 66 27 25 0 49-9 66-27 18-18 28-41 28-66 0-26-10-49-28-67z" horiz-adv-x="1000" />

<glyph glyph-name="basic-camera" unicode="&#xe84f;" d="M734 616l-103 0-125 125-412 0 0-32 400 0 94-93-588 0 0-532 734 0 0 145 266-156 0 554-266-156z m235-43l0-446-266 157 0-168-672 0 0 468 672 0 0-168z m-875-82l62 0 0-32-62 0z m125 0l62 0 0-32-62 0z m-125-313l312 0 0 188-312 0z m31 156l250 0 0-125-250 0z" horiz-adv-x="1000" />

<glyph glyph-name="basic-watch" unicode="&#xe850;" d="M828 413c0 109-55 205-137 265l12 0 0 235-406 0 0-235 12 0c-82-60-137-156-137-265 0-110 55-206 137-266l-12 0 0-235 406 0 0 235-12 0c82 60 137 156 137 266z m-500 468l344 0 0-189c-51 31-109 49-172 49-62 0-121-18-172-49z m344-937l-344 0 0 189c51-31 110-49 172-49 63 0 121 18 172 49z m-172 172c-164 0-297 132-297 297 0 164 133 296 297 296 164 0 297-132 297-296 0-165-133-297-297-297z m16 484l-32 0 0-197 133-67 16 28-117 58z" horiz-adv-x="1000" />

<glyph glyph-name="basic-world" unicode="&#xe851;" d="M500 915c-135 0-260-53-355-147-94-96-147-221-147-355 0-135 53-260 147-354 95-96 220-147 355-147 0 0 0 0 0 0l0 0c277 0 502 225 502 501 0 134-53 259-146 355-96 94-221 147-356 147z m356-194c-14-19-51-60-125-94-43 123-112 207-155 250 98-15 186-60 256-132 8-8 16-16 24-24z m-333-779c-1 0-5 0-7 0l0 299c78-2 138-14 185-32-54-158-158-252-178-267z m-224 267c49 18 109 30 185 32l0-299c-2 0-5 0-7 0-20 15-123 109-178 267z m178 674c2 0 5 0 7 0l0-299c-78 2-138 14-185 32 55 158 158 252 178 267z m224-267c-49-18-109-30-185-32l0 299c2 0 6 0 7 0 20-15 124-109 178-267z m-185-63c80 2 144 14 195 31 14-46 21-99 23-156l-218 0z m-32 0l0-125-218 0c2 57 9 110 23 156 51-17 115-29 195-31z m-250-125l-205 0c4 98 37 192 96 268 20-24 61-67 135-100-14-51-24-105-26-168z m0-31c2-63 12-117 26-168-74-33-115-76-135-100-59 77-92 170-96 268z m32 0l218 0 0-125c-80-2-144-14-195-31-14 47-21 99-23 156z m250-125l0 125 218 0c-2-57-9-109-23-156-51 17-115 29-195 31z m250 125l205 0c-4-100-39-193-96-268-19 26-60 67-135 100 14 51 24 105 26 168z m0 31c-2 63-12 117-26 168 75 33 116 76 135 100 59-76 92-170 96-268l-205 0z m-342 449c-43-43-111-127-154-250-24 10-43 22-57 32-37 25-59 48-66 62 5 8 13 16 21 24 70 72 158 117 256 132z m-279-773c13 19 50 61 125 94 43-123 111-207 154-250-98 15-186 60-256 133-8 7-16 15-23 23z m355-176l0-2z m76 20c43 43 112 127 155 250 23-10 42-22 56-32 37-25 59-48 67-62-71-82-168-137-278-156z" horiz-adv-x="1000" />

<glyph glyph-name="basic-star" unicode="&#xe852;" d="M500 944l-137-391-377 0 309-240-139-412 344 258 344-258-139 412 309 240-377 0z m170-619l111-338-281 211-281-211 111 338-254 197 311 0 113 328 113-328 311 0z" horiz-adv-x="1000" />

<glyph glyph-name="basic-ecommerce-bag" unicode="&#xe853;" d="M859-88l-718 0 0 735 718 0z m-687 32l656 0 0 672-656 0z m500 594l-31 0 0 203c0 78-63 140-141 140-78 0-141-62-141-140l0-203-31 0 0 203c0 95 76 172 172 172 96 0 172-77 172-172z" horiz-adv-x="1000" />

<glyph glyph-name="ecommerce-cart" unicode="&#xe854;" d="M313-88c-61 0-110 49-110 110 0 60 49 109 110 109 60 0 109-49 109-109 0-61-49-110-109-110z m0 188c-43 0-79-35-79-78 0-43 36-78 79-78 43 0 78 35 78 78 0 43-35 78-78 78z m375-188c-61 0-110 49-110 110 0 60 49 109 110 109 60 0 109-49 109-109 0-61-49-110-109-110z m0 188c-43 0-79-35-79-78 0-43 36-78 79-78 43 0 78 35 78 78 0 43-35 78-78 78z m-282-62l188 0 0-32-188 0z m-203-18l-60 846-143 0 0 31 170 0 64-873z m2 205l-4 31 662 47 102 438-793 0 0 31 832 0-117-500z" horiz-adv-x="1000" />

<glyph glyph-name="ecommerce-gift" unicode="&#xe855;" d="M1000 475l-1000 0 0 172 1000 0z m-969 31l938 0 0 110-938 0z m891-515l-844 0 0 515 844 0z m-813 31l782 0 0 453-782 0z m375 609l32 0 0-625-32 0z m16-15c-6 0-59 0-109 19-73 26-110 72-110 137 0 49 35 80 90 80 69 0 145-47 145-111l0-125z m-129 205c-21 0-58-8-58-49 0-104 127-121 171-125l0 94c0 45-60 80-113 80z m129-205l-16 0 0 125c0 64 77 111 145 111 55 0 90-31 90-80 0-65-37-111-110-137-50-19-103-19-109-19z m129 205c-53 0-113-35-113-80l0-94c19 2 52 6 84 18 58 21 88 56 88 107 0 41-38 49-59 49z" horiz-adv-x="1000" />

<glyph glyph-name="ecommerce-graph1" unicode="&#xe856;" d="M438-88c-118 0-227 45-309 129-84 82-129 192-129 309 0 117 45 227 127 309 84 84 193 129 311 129l15 0 0-422 422 0 0-16c0-117-45-227-129-309-82-84-191-129-308-129 0 0 0 0 0 0z m-16 844c-104-4-199-47-272-119-76-76-119-178-119-287 0-109 43-211 119-287 77-76 178-119 288-119 0 0 0 0 0 0l0 0c109 0 210 43 287 119 72 72 115 168 119 271l-422 0z m578-297l-453 0 0 454 16 0c117 0 226-45 310-129 82-82 127-192 127-309z m-422 32l391 0c-4 103-45 199-119 271-73 72-168 115-272 119z" horiz-adv-x="1000" />

<glyph glyph-name="ecommerce-graph2" unicode="&#xe857;" d="M359-88l-218 0 0 563 218 0z m-187 32l156 0 0 500-156 0z m687-32l-218 0 0 407 218 0z m-187 32l156 0 0 344-156 0z m-63-32l-218 0 0 1001 218 0z m-187 32l156 0 0 937-156 0z" horiz-adv-x="1000" />

<glyph glyph-name="ecommerce-graph3" unicode="&#xe858;" d="M875 319c-35 0-62 27-62 62 0 35 27 63 62 63 35 0 63-28 63-63 0-35-28-62-63-62z m0 94c-18 0-31-14-31-32 0-17 13-31 31-31 18 0 31 14 31 31 0 18-13 32-31 32z m-531 375c-35 0-63 27-63 62 0 35 28 63 63 63 35 0 62-28 62-63 0-35-27-62-62-62z m0 93c-18 0-31-13-31-31 0-18 13-31 31-31 17 0 31 13 31 31 0 18-14 31-31 31z m281-812c-35 0-62 27-62 62 0 35 27 63 62 63 35 0 63-28 63-63 0-35-28-62-63-62z m0 94c-18 0-31-14-31-32 0-17 13-31 31-31 18 0 31 14 31 31 0 18-13 32-31 32z m-516 203c-35 0-62 27-62 62 0 35 27 63 62 63 36 0 63-28 63-63 0-35-27-62-63-62z m0 93c-17 0-31-13-31-31 0-17 14-31 31-31 18 0 32 14 32 31 0 18-14 31-32 31z m190 368l27-16-187-344-28 16z m533-467l24-20-172-187-24 19z m168-448l-1000 0 0 126 1000 0z m-969 32l938 0 0 62-938 0z m360 881l218-641-31-12-219 641z" horiz-adv-x="1000" />

<glyph glyph-name="ecommerce-graph4" unicode="&#xe859;" d="M359-88l-218 0 0 766 218 0z m-187 32l156 0 0 703-156 0z m687-32l-218 0 0 313 218 0z m-187 32l156 0 0 250-156 0z m-63-32l-218 0 0 516 218 0z m-187 32l156 0 0 453-156 0z m-160 965l594-594-24-24-594 594z m582-621l-172 0 0 31 156 0 0 156 31 0 0-172z" horiz-adv-x="1000" />

<glyph glyph-name="ecommerce-graph5" unicode="&#xe85a;" d="M359-88l-218 0 0 313 218 0z m-187 32l156 0 0 250-156 0z m687-32l-218 0 0 735 218 0z m-187 32l156 0 0 672-156 0z m-63-32l-218 0 0 516 218 0z m-187 32l156 0 0 453-156 0z m363 965l24-24-578-578-24 24z m28-184l-32 0 0 156-156 0 0 32 172 0 16-16z" horiz-adv-x="1000" />

<glyph glyph-name="ecommerce-money" unicode="&#xe85b;" d="M688 6c-172 0-313 141-313 313 0 172 141 312 313 312 171 0 312-140 312-312 0-172-141-313-312-313z m0 594c-155 0-282-127-282-281 0-154 127-281 282-281 154 0 281 127 281 281 0 154-127 281-281 281z m0-500c-122 0-219 98-219 219 0 121 97 219 219 219 121 0 218-98 218-219 0-121-97-219-218-219z m0 406c-104 0-188-84-188-187 0-104 84-188 188-188 103 0 187 84 187 188 0 103-84 187-187 187z m-79-500l-609 0 0 125 469 0 0-31-438 0 0-62 578 0z m-140 94l-438 0 0 125 391 0 0-31-359 0 0-63 406 0z m-47 94l-359 0 0 125 343 0 0-31-312 0 0-63 328 0z m-16 94l-406 0 0 125 406 0 0-32-375 0 0-62 375 0z m0 93l-375 0 0 125 422 0 0-31-390 0 0-62 343 0z m47 94l-453 0 0 125 547 0 0-31-516 0 0-63 422 0z m94 94l-516 0 0 125 610 0 0-94-32 0 0 63-546 0 0-63 484 0z m62 94l-609 0 0 125 609 0z m-578 31l547 0 0 62-547 0z" horiz-adv-x="1000" />

<glyph glyph-name="ecommerce-bank-note" unicode="&#xe85c;" d="M1000 147l-1000 0 0 531 1000 0z m-969 31l938 0 0 469-938 0z m828 31l-718 0 0 16c0 35-28 63-63 63l-15 0 0 250 15 0c35 0 63 27 63 62l0 16 718 0 0-16c0-35 28-62 63-62l16 0 0-250-16 0c-35 0-63-28-63-63z m-689 32l660 0c6 39 37 70 76 76l0 191c-39 6-70 37-76 76l-660 0c-6-39-37-70-76-76l0-191c39-6 70-37 76-76z m330 31c-78 0-141 62-141 141 0 78 63 140 141 140 78 0 141-62 141-140 0-79-63-141-141-141z m0 250c-60 0-109-49-109-109 0-61 49-110 109-110 61 0 109 49 109 110 0 60-48 109-109 109z" horiz-adv-x="1000" />

<glyph glyph-name="ecommerce-banknotes" unicode="&#xe85d;" d="M844 116l-844 0 0 437 844 0z m-813 31l782 0 0 375-782 0z m969 125l-141 0 0 31 110 0 0 375-781 0 0-109-32 0 0 140 844 0z m-281-94l-578 0 0 16c0 23-8 47-63 47l-15 0 0 187 15 0c55 0 63 24 63 47l0 16 578 0 0-16c0-39 25-47 47-47l15 0 0-187-15 0c-22 0-47-8-47-47z m-549 31l520 0c3 39 31 57 60 61l0 129c-29 4-57 21-60 60l-520 0c-4-29-22-56-76-62l0-125c54-6 72-33 76-63z m252 32c-51 0-94 43-94 93 0 51 43 94 94 94 51 0 94-43 94-94 0-50-43-93-94-93z m0 156c-35 0-63-27-63-63 0-35 28-62 63-62 35 0 62 27 62 62 0 36-27 63-62 63z" horiz-adv-x="1000" />

<glyph glyph-name="ecommerce-basket" unicode="&#xe85e;" d="M824-25l-648 0-182 563 1012 0z m-625 31l602 0 162 500-926 0z m131 834l27-11-125-313-27 12z m340 0l125-312-27-12-125 313z" horiz-adv-x="1000" />

<glyph glyph-name="basic-megaphone" unicode="&#xe85f;" d="M1000 69l-53 0-242 187-601 0-104 104 0 199 104 104 601 0 242 187 53 0z m-41 31l10 0 0 719-10 0-242-188-602 0-84-84 0-175 84-84 602 0z m-668-125l-127 0 119 303 28-12-100-260 61 0 152 274 27-16z m365 672l32 0 0-375-32 0z m-109 0l31 0 0-375-31 0z" horiz-adv-x="1000" />

<glyph glyph-name="ecommerce-diamond" unicode="&#xe860;" d="M500-15l-506 504 279 345 454 0 279-345z m16 818l0-760 447 450-252 310z m-479-310l447-450 0 760-195 0z m449-477l-222 473 95 334 32-8-92-322 215-465z m28 0l-28 12 215 465-92 322 32 8 95-334z m-498 490l968 0 0-31-968 0z" horiz-adv-x="1000" />

<glyph glyph-name="ecommerce-creditcard" unicode="&#xe861;" d="M1000 69l-1000 0 0 687 1000 0z m-969 31l938 0 0 625-938 0z m-15 563l968 0 0-32-968 0z m0-125l968 0 0-32-968 0z m78-344l62 0 0-31-62 0z m94 0l453 0 0-31-453 0z" horiz-adv-x="1000" />

<glyph glyph-name="ecommerce-wallet" unicode="&#xe862;" d="M969 38l-969 0 0 656 969 0 0-188-31 0 0 157-907 0 0-594 907 0 0 156 31 0z m-110 640l-31 0 0 78-734 0 0 32 765 0z m-828 16l-31 0c0 51 43 94 94 94l0-32c-35 0-63-27-63-62z m969-485l-326 0c-86 0-156 71-156 157 0 86 70 156 156 156l326 0z m-326 282c-68 0-125-57-125-125 0-69 57-125 125-125l295 0 0 250z m14-188c-36 0-63 28-63 63 0 35 27 62 63 62 35 0 62-27 62-62 0-35-27-63-62-63z m0 94c-18 0-32-14-32-31 0-18 14-32 32-32 17 0 31 14 31 32 0 17-14 31-31 31z" horiz-adv-x="1000" />

<glyph glyph-name="basic-time" unicode="&#xe863;" d="M652 284l-136 134 0 307-32 0 0-318 145-147z m-589 144l62 0 0-31-62 0z m812 0l63 0 0-31-63 0z m-391-390l32 0 0-63-32 0z m0 812l32 0 0-62-32 0z m16 63l0-32c258 0 469-211 469-468 0-258-211-469-469-469-258 0-469 211-469 469 0 97 30 191 86 271l71 70 0-138 31 0 0 172-16 15-172 0 0-31 131 0-68-66 0-2c-63-86-94-186-94-291 0-276 225-501 500-501 275 0 500 225 500 501 0 275-225 500-500 500z" horiz-adv-x="1000" />

<glyph glyph-name="basic-tag" unicode="&#xe864;" d="M609-93l-609 609 0 397 397 0 609-610z m-578 621l578-578 354 353-578 578-354 0z m235 10c-61 0-110 48-110 109 0 60 49 109 110 109 60 0 109-49 109-109 0-61-49-109-109-109z m0 187c-43 0-78-35-78-78 0-43 35-78 78-78 43 0 78 35 78 78 0 43-35 78-78 78z" horiz-adv-x="1000" />

<glyph glyph-name="help-circled" unicode="&#xe865;" d="M500 82v107q0 8-5 13t-13 5h-107q-8 0-13-5t-5-13v-107q0-8 5-13t13-5h107q8 0 13 5t5 13z m143 375q0 49-31 91t-77 65-95 23q-136 0-207-119-9-13 4-24l74-55q4-4 10-4 9 0 14 7 30 38 48 51 19 14 48 14 27 0 48-15t21-33q0-21-11-34t-38-25q-35-15-65-48t-29-70v-20q0-8 5-13t13-5h107q8 0 13 5t5 13q0 10 12 27t30 28q18 10 28 16t25 19 25 27 16 34 7 45z m214-107q0-117-57-215t-156-156-215-58-216 58-155 156-58 215 58 215 155 156 216 58 215-58 156-156 57-215z" horiz-adv-x="857.1" />

<glyph glyph-name="help" unicode="&#xe866;" d="M494 740q86-62 86-184 0-64-42-124-12-20-88-80l-46-30q-40-34-48-60-6-16-8-44 0-14-16-14l-128 0q-16 0-16 12 4 98 28 124 16 22 48 48t56 42l24 14q22 16 34 34 28 44 28 70 0 40-26 78-28 36-92 36-68 0-94-44-28-42-28-92l-166 0q6 162 114 232 70 42 166 42 130 0 214-60z m-216-636q44 0 73-30t27-74q-2-46-32-73t-74-25q-44 0-73 29t-27 75 32 73 74 25z" horiz-adv-x="580" />

<glyph glyph-name="megaphone" unicode="&#xe867;" d="M929 493q29 0 50-21t21-51-21-50-50-21v-214q0-29-22-50t-50-22q-233 194-453 212-32-10-51-36t-17-57 22-51q-11-19-13-37t4-32 19-31 26-28 35-28q-17-32-63-46t-94-7-73 31q-4 13-17 49t-18 53-12 50-9 56 2 55 12 62h-68q-36 0-63 26t-26 63v107q0 37 26 63t63 26h268q243 0 500 215 29 0 50-22t22-50v-214z m-72-337v532q-220-168-428-191v-151q210-23 428-190z" horiz-adv-x="1000" />

<glyph glyph-name="megaphone-1" unicode="&#xe868;" d="M792 500q58-138 67-258t-39-140q-28-12-61 3t-65 40-99 41-149 8q-28-4-42-19t-6-37q22-56 46-108 4-10 24-22t24-20q14-34-22-46-50-22-102-40-30-10-54 42-32 76-58 132-6 12-34 17t-46 31q-30-10-38-14-34-12-74 12t-54 60q-17 32-5 79t43 61q126 52 213 108t124 103 59 92 25 78 15 59 36 36q48 20 130-70t142-228z m-28-300q8 4 10 38t-11 98-41 128q-28 66-67 123t-67 84-36 23-10-42 10-105 40-133 68-119 68-76 36-19z" horiz-adv-x="860" />

<glyph glyph-name="info-1" unicode="&#xe869;" d="M469 78l0 349-121 0 0-349 121 0z m-61 410c40 0 71 31 71 72 0 39-31 70-71 70s-72-31-72-70c0-40 32-72 72-72z m-2 269c224 0 407-182 407-407 0-223-183-406-407-406-225 0-406 183-406 406 0 225 181 407 406 407z" horiz-adv-x="813" />

<glyph glyph-name="home-1" unicode="&#xe86a;" d="M786 296v-267q0-15-11-25t-25-11h-214v214h-143v-214h-214q-15 0-25 11t-11 25v267q0 1 0 2t0 2l321 264 321-264q1-1 1-4z m124 39l-34-41q-5-5-12-6h-2q-7 0-12 3l-386 322-386-322q-7-4-13-3-7 1-12 6l-35 41q-4 6-3 13t6 12l401 334q18 15 42 15t43-15l136-113v108q0 8 5 13t13 5h107q8 0 13-5t5-13v-227l122-102q6-4 6-12t-4-13z" horiz-adv-x="928.6" />

<glyph glyph-name="eye-1" unicode="&#xe86b;" d="M929 314q-85 132-213 197 34-58 34-125 0-103-73-177t-177-73-177 73-73 177q0 67 34 125-128-65-213-197 75-114 187-182t242-68 243 68 186 182z m-402 215q0 11-8 19t-19 7q-70 0-120-50t-50-119q0-11 8-19t19-8 19 8 8 19q0 48 34 82t82 34q11 0 19 8t8 19z m473-215q0-19-11-38-78-129-210-206t-279-77-279 77-210 206q-11 19-11 38t11 39q78 128 210 205t279 78 279-78 210-205q11-20 11-39z" horiz-adv-x="1000" />

<glyph glyph-name="tag-1" unicode="&#xe86c;" d="M250 600q0 30-21 51t-50 20-51-20-21-51 21-50 51-21 50 21 21 50z m595-321q0-30-20-51l-274-274q-22-21-51-21-30 0-50 21l-399 399q-21 21-36 57t-15 65v232q0 29 21 50t50 22h233q29 0 65-15t57-36l399-399q20-21 20-50z" horiz-adv-x="857.1" />

<glyph glyph-name="briefcase" unicode="&#xe86d;" d="M357 707h286v72h-286v-72z m643-357v-268q0-37-26-63t-63-26h-822q-36 0-63 26t-26 63v268h375v-89q0-15 11-25t25-11h178q15 0 25 11t11 25v89h375z m-429 0v-71h-142v71h142z m429 268v-214h-1000v214q0 37 26 63t63 26h197v89q0 23 15 38t38 16h322q22 0 38-16t15-38v-89h197q37 0 63-26t26-63z" horiz-adv-x="1000" />

<glyph glyph-name="play" unicode="&#xe86e;" d="M772 333l-741-412q-13-7-22-2t-9 20v822q0 14 9 20t22-2l741-412q13-7 13-17t-13-17z" horiz-adv-x="785.7" />

<glyph glyph-name="play-circled2" unicode="&#xe86f;" d="M661 350q0-21-18-31l-304-178q-8-5-18-5-8 0-17 4-18 11-18 31v358q0 20 18 31 18 10 35-1l304-178q18-10 18-31z m71 0q0 83-41 152t-110 111-152 41-153-41-110-111-41-152 41-152 110-111 153-41 152 41 110 111 41 152z m125 0q0-117-57-215t-156-156-215-58-216 58-155 156-58 215 58 215 155 156 216 58 215-58 156-156 57-215z" horiz-adv-x="857.1" />

<glyph glyph-name="credit-card" unicode="&#xe887;" d="M982 779q37 0 63-27t26-63v-678q0-37-26-63t-63-27h-893q-36 0-63 27t-26 63v678q0 37 26 63t63 27h893z m-893-72q-7 0-12-5t-6-13v-125h929v125q0 8-5 13t-13 5h-893z m893-714q7 0 13 5t5 13v339h-929v-339q0-7 6-13t12-5h893z m-839 71v72h143v-72h-143z m214 0v72h214v-72h-214z" horiz-adv-x="1071.4" />

<glyph glyph-name="mail" unicode="&#xe8a3;" d="M929 11v428q-18-20-39-36-149-115-238-189-28-24-46-37t-48-28-57-13h-2q-26 0-57 13t-48 28-46 37q-88 74-238 189-21 16-39 36v-428q0-7 6-13t12-5h822q7 0 12 5t6 13z m0 586v14t-1 7-1 7-3 5-5 4-8 2h-822q-7 0-12-6t-6-12q0-94 83-159 107-84 223-176 4-3 20-17t25-21 25-17 28-16 24-5h2q11 0 24 5t28 16 25 17 25 21 20 17q116 92 224 176 30 24 56 65t26 73z m71 21v-607q0-37-26-63t-63-27h-822q-36 0-63 27t-26 63v607q0 37 26 63t63 26h822q37 0 63-26t26-63z" horiz-adv-x="1000" />

<glyph glyph-name="search" unicode="&#xe8a4;" d="M643 386q0 103-73 176t-177 74-177-74-73-176 73-177 177-73 177 73 73 177z m286-465q0-29-22-50t-50-21q-30 0-50 21l-191 191q-100-69-223-69-80 0-153 31t-125 84-84 125-31 153 31 152 84 126 125 84 153 31 153-31 125-84 84-126 31-152q0-123-69-223l191-191q21-21 21-51z" horiz-adv-x="928.6" />

<glyph glyph-name="attention" unicode="&#xe8a5;" d="M571 83v106q0 8-5 13t-12 5h-108q-7 0-12-5t-5-13v-106q0-8 5-13t12-6h108q7 0 12 6t5 13z m-1 208l10 257q0 6-5 10-7 6-14 6h-122q-6 0-14-6-5-4-5-12l9-255q0-5 6-9t13-3h103q8 0 14 3t5 9z m-7 522l428-786q20-35-1-70-9-17-26-26t-35-10h-858q-18 0-35 10t-26 26q-21 35-1 70l429 786q9 17 26 27t36 10 36-10 27-27z" horiz-adv-x="1000" />

<glyph glyph-name="attention-circled" unicode="&#xe8a6;" d="M429 779q116 0 215-58t156-156 57-215-57-215-156-156-215-58-216 58-155 156-58 215 58 215 155 156 216 58z m71-696v106q0 8-5 13t-12 5h-107q-8 0-13-5t-6-13v-106q0-8 6-13t13-6h107q7 0 12 6t5 13z m-1 192l10 346q0 7-6 10-5 5-13 5h-123q-8 0-13-5-6-3-6-10l10-346q0-6 5-10t14-4h103q8 0 13 4t6 10z" horiz-adv-x="857.1" />

<glyph glyph-name="location" unicode="&#xe8a7;" d="M429 493q0 59-42 101t-101 42-101-42-42-101 42-101 101-42 101 42 42 101z m142 0q0-61-18-100l-203-432q-9-18-27-29t-37-11-38 11-26 29l-204 432q-18 39-18 100 0 118 84 202t202 84 202-84 83-202z" horiz-adv-x="571.4" />

<glyph glyph-name="tags" unicode="&#xe8a8;" d="M250 600q0 30-21 51t-50 20-51-20-21-51 21-50 51-21 50 21 21 50z m595-321q0-30-20-51l-274-274q-22-21-51-21-30 0-50 21l-399 399q-21 21-36 57t-15 65v232q0 29 21 50t50 22h233q29 0 65-15t57-36l399-399q20-21 20-50z m215 0q0-30-21-51l-274-274q-22-21-51-21-20 0-33 8t-29 25l262 262q21 21 21 51 0 29-21 50l-399 399q-21 21-57 36t-65 15h125q29 0 65-15t57-36l399-399q21-21 21-50z" horiz-adv-x="1071.4" />

<glyph glyph-name="video" unicode="&#xe8a9;" d="M214-43v72q0 14-10 25t-25 10h-72q-14 0-25-10t-11-25v-72q0-14 11-25t25-11h72q14 0 25 11t10 25z m0 214v72q0 14-10 25t-25 11h-72q-14 0-25-11t-11-25v-72q0-14 11-25t25-10h72q14 0 25 10t10 25z m0 215v71q0 15-10 25t-25 11h-72q-14 0-25-11t-11-25v-71q0-15 11-25t25-11h72q14 0 25 11t10 25z m572-429v286q0 14-11 25t-25 11h-429q-14 0-25-11t-10-25v-286q0-14 10-25t25-11h429q15 0 25 11t11 25z m-572 643v71q0 15-10 26t-25 10h-72q-14 0-25-10t-11-26v-71q0-14 11-25t25-11h72q14 0 25 11t10 25z m786-643v72q0 14-11 25t-25 10h-71q-15 0-25-10t-11-25v-72q0-14 11-25t25-11h71q15 0 25 11t11 25z m-214 429v285q0 15-11 26t-25 10h-429q-14 0-25-10t-10-26v-285q0-15 10-25t25-11h429q15 0 25 11t11 25z m214-215v72q0 14-11 25t-25 11h-71q-15 0-25-11t-11-25v-72q0-14 11-25t25-10h71q15 0 25 10t11 25z m0 215v71q0 15-11 25t-25 11h-71q-15 0-25-11t-11-25v-71q0-15 11-25t25-11h71q15 0 25 11t11 25z m0 214v71q0 15-11 26t-25 10h-71q-15 0-25-10t-11-26v-71q0-14 11-25t25-11h71q15 0 25 11t11 25z m71 89v-750q0-37-26-63t-63-26h-893q-36 0-63 26t-26 63v750q0 37 26 63t63 27h893q37 0 63-27t26-63z" horiz-adv-x="1071.4" />

<glyph glyph-name="videocam" unicode="&#xe8aa;" d="M1000 654v-608q0-23-22-32-7-3-14-3-15 0-25 10l-225 225v-92q0-67-47-114t-113-47h-393q-67 0-114 47t-47 114v392q0 67 47 114t114 47h393q66 0 113-47t47-114v-92l225 225q10 10 25 10 7 0 14-2 22-10 22-33z" horiz-adv-x="1000" />

<glyph glyph-name="picture" unicode="&#xe8ab;" d="M357 529q0-45-31-76t-76-32-76 32-31 76 31 76 76 31 76-31 31-76z m572-215v-250h-786v107l178 179 90-89 285 285z m53 393h-893q-7 0-12-5t-6-13v-678q0-7 6-13t12-5h893q7 0 13 5t5 13v678q0 8-5 13t-13 5z m89-18v-678q0-37-26-63t-63-27h-893q-36 0-63 27t-26 63v678q0 37 26 63t63 27h893q37 0 63-27t26-63z" horiz-adv-x="1071.4" />

<glyph glyph-name="camera" unicode="&#xe8ac;" d="M536 475q66 0 113-47t47-114-47-113-113-47-114 47-47 113 47 114 114 47z m393 232q59 0 101-42t41-101v-500q0-59-41-101t-101-42h-786q-59 0-101 42t-42 101v500q0 59 42 101t101 42h125l28 76q11 27 39 47t58 20h286q29 0 57-20t39-47l29-76h125z m-393-643q103 0 176 74t74 176-74 177-176 73-177-73-73-177 73-176 177-74z" horiz-adv-x="1071.4" />

<glyph glyph-name="ok" unicode="&#xe8ad;" d="M933 534q0-22-16-38l-404-404-76-76q-16-15-38-15t-38 15l-76 76-202 202q-15 16-15 38t15 38l76 76q16 16 38 16t38-16l164-165 366 367q16 16 38 16t38-16l76-76q16-15 16-38z" horiz-adv-x="1000" />

<glyph glyph-name="ok-circled" unicode="&#xe8ae;" d="M717 440q0 16-10 26l-51 50q-11 11-25 11t-25-11l-228-227-126 126q-11 11-25 11t-25-11l-51-50q-10-10-10-26 0-15 10-25l202-202q10-10 25-10 15 0 26 10l303 303q10 10 10 25z m140-90q0-117-57-215t-156-156-215-58-216 58-155 156-58 215 58 215 155 156 216 58 215-58 156-156 57-215z" horiz-adv-x="857.1" />

<glyph glyph-name="star-empty" unicode="&#xe8af;" d="M635 290l170 166-235 34-106 213-105-213-236-34 171-166-41-235 211 111 211-111z m294 199q0-12-15-27l-202-197 48-279q0-4 0-12 0-28-23-28-10 0-22 7l-251 132-250-132q-12-7-23-7-11 0-17 9t-6 19q0 4 1 12l48 279-203 197q-14 15-14 27 0 21 31 26l280 40 126 254q11 23 27 23t28-23l125-254 280-40q32-5 32-26z" horiz-adv-x="928.6" />

<glyph glyph-name="star" unicode="&#xe8b0;" d="M929 489q0-12-15-27l-202-197 48-279q0-4 0-12 0-11-6-19t-17-9q-10 0-22 7l-251 132-250-132q-12-7-23-7-11 0-17 9t-6 19q0 4 1 12l48 279-203 197q-14 15-14 27 0 21 31 26l280 40 126 254q11 23 27 23t28-23l125-254 280-40q32-5 32-26z" horiz-adv-x="928.6" />

<glyph glyph-name="heart-empty" unicode="&#xe8b1;" d="M929 517q0 46-12 80t-31 55-46 33-52 18-55 4-62-14-62-36-48-40-34-34q-10-13-27-13t-27 13q-14 15-34 34t-48 40-62 36-62 14-55-4-52-18-46-33-31-55-12-80q0-93 105-198l324-312 324 312q105 105 105 198z m71 0q0-123-128-251l-347-335q-10-10-25-10t-25 10l-348 336q-5 5-15 15t-31 37-38 54-30 67-13 77q0 123 71 192t196 70q34 0 70-12t67-33 54-38 42-38q20 20 42 38t54 38 67 33 70 12q125 0 196-70t71-192z" horiz-adv-x="1000" />

<glyph glyph-name="heart" unicode="&#xe8b2;" d="M500-79q-14 0-25 10l-348 336q-5 5-15 15t-31 37-38 54-30 67-13 77q0 123 71 192t196 70q34 0 70-12t67-33 54-38 42-38q20 20 42 38t54 38 67 33 70 12q125 0 196-70t71-192q0-123-128-251l-347-335q-10-10-25-10z" horiz-adv-x="1000" />

<glyph glyph-name="bell" unicode="&#xe8b3;" d="M509-96q0 8-9 8-33 0-57 24t-23 57q0 9-9 9t-9-9q0-41 29-70t69-28q9 0 9 9z m-372 160h726q-149 168-149 465 0 28-13 58t-39 58-67 45-95 17-95-17-67-45-39-58-13-58q0-297-149-465z m827 0q0-29-21-50t-50-21h-250q0-59-42-101t-101-42-101 42-42 101h-250q-29 0-50 21t-21 50q28 24 51 49t47 67 42 89 27 115 11 145q0 84 66 157t171 89q-5 10-5 21 0 23 16 38t38 16 38-16 16-38q0-11-5-21 106-16 171-89t66-157q0-78 11-145t28-115 41-89 48-67 50-49z" horiz-adv-x="1000" />

<glyph glyph-name="calendar" unicode="&#xe8b4;" d="M71-79h161v161h-161v-161z m197 0h178v161h-178v-161z m-197 197h161v178h-161v-178z m197 0h178v178h-178v-178z m-197 214h161v161h-161v-161z m411-411h179v161h-179v-161z m-214 411h178v161h-178v-161z m428-411h161v161h-161v-161z m-214 197h179v178h-179v-178z m-196 482v161q0 7-6 12t-12 6h-36q-7 0-12-6t-6-12v-161q0-7 6-13t12-5h36q7 0 12 5t6 13z m410-482h161v178h-161v-178z m-214 214h179v161h-179v-161z m214 0h161v161h-161v-161z m18 268v161q0 7-5 12t-13 6h-35q-7 0-13-6t-5-12v-161q0-7 5-13t13-5h35q8 0 13 5t5 13z m215 36v-715q0-29-22-50t-50-21h-786q-29 0-50 21t-21 50v715q0 29 21 50t50 21h72v54q0 37 26 63t63 26h36q37 0 63-26t26-63v-54h214v54q0 37 27 63t63 26h35q37 0 64-26t26-63v-54h71q29 0 50-21t22-50z" horiz-adv-x="928.6" />

<glyph glyph-name="wrench" unicode="&#xe8b5;" d="M214 29q0 14-10 25t-25 10-25-10-11-25 11-25 25-11 25 11 10 25z m360 234l-381-381q-21-20-50-20-29 0-51 20l-59 61q-21 20-21 50 0 29 21 51l380 380q22-55 64-97t97-64z m354 243q0-22-13-59-27-75-92-122t-144-46q-104 0-177 73t-73 177 73 176 177 74q32 0 67-10t60-26q9-6 9-15t-9-16l-163-94v-125l108-60q2 2 44 27t75 45 40 20q8 0 13-5t5-14z" horiz-adv-x="928.6" />

<glyph glyph-name="cog-alt" unicode="&#xe8b6;" d="M500 350q0 59-42 101t-101 42-101-42-42-101 42-101 101-42 101 42 42 101z m429-286q0 29-22 51t-50 21-50-21-21-51q0-29 21-50t50-21 51 21 21 50z m0 572q0 29-22 50t-50 21-50-21-21-50q0-30 21-51t50-21 51 21 21 51z m-215-235v-103q0-6-4-11t-8-6l-87-14q-6-19-18-42 19-27 50-64 4-6 4-11 0-7-4-11-12-17-46-50t-43-33q-7 0-12 4l-64 50q-21-11-43-17-6-60-13-87-4-13-17-13h-104q-6 0-11 4t-5 10l-13 85q-19 6-42 18l-66-50q-4-4-11-4-6 0-12 4-80 75-80 90 0 5 4 10 5 8 23 30t26 34q-13 24-20 46l-85 13q-5 1-9 5t-4 11v104q0 5 4 10t9 6l86 14q7 19 18 42-19 27-50 64-4 6-4 11 0 7 4 12 12 16 46 49t44 33q6 0 12-4l64-50q19 10 43 18 6 60 13 86 3 13 16 13h104q6 0 11-4t6-10l13-85q19-6 42-17l65 49q5 4 12 4 6 0 11-4 81-75 81-90 0-4-4-10-7-9-24-30t-25-34q13-27 19-46l85-12q6-2 9-6t4-11z m357-298v-78q0-9-83-17-6-15-16-29 28-63 28-77 0-2-2-4-68-40-69-40-5 0-26 27t-29 37q-11-1-17-1t-17 1q-7-11-29-37t-25-27q-1 0-69 40-3 2-3 4 0 14 29 77-10 14-17 29-83 8-83 17v78q0 9 83 18 7 16 17 29-29 63-29 77 0 2 3 4 2 1 19 11t33 19 17 9q4 0 25-26t29-38q12 1 17 1t17-1q28 40 51 63l4 1q2 0 69-39 2-2 2-4 0-14-28-77 9-13 16-29 83-9 83-18z m0 572v-78q0-9-83-18-6-15-16-29 28-63 28-77 0-2-2-4-68-39-69-39-5 0-26 26t-29 38q-11-1-17-1t-17 1q-7-12-29-38t-25-26q-1 0-69 39-3 2-3 4 0 14 29 77-10 14-17 29-83 9-83 18v78q0 9 83 17 7 16 17 29-29 63-29 77 0 2 3 4 2 1 19 11t33 19 17 9q4 0 25-26t29-37q12 1 17 1t17-1q28 39 51 62l4 1q2 0 69-39 2-2 2-4 0-14-28-77 9-13 16-29 83-8 83-17z" horiz-adv-x="1071.4" />

<glyph glyph-name="cog" unicode="&#xe8b7;" d="M571 350q0 59-41 101t-101 42-101-42-42-101 42-101 101-42 101 42 41 101z m286 61v-124q0-7-4-13t-11-7l-104-16q-10-30-21-51 19-27 59-77 6-6 6-13t-5-13q-15-21-55-61t-53-39q-7 0-14 5l-77 60q-25-13-51-21-9-76-16-104-4-16-20-16h-124q-8 0-14 5t-6 12l-16 103q-27 9-50 21l-79-60q-6-5-14-5-8 0-14 6-70 64-92 94-4 5-4 13 0 6 5 12 8 12 28 37t30 40q-15 28-23 55l-102 15q-7 1-11 7t-5 13v124q0 7 5 13t10 7l104 16q8 25 22 51-23 32-60 77-6 7-6 14 0 5 5 12 15 20 55 60t53 40q7 0 15-5l77-60q24 13 50 21 9 76 17 104 3 16 20 16h124q7 0 13-5t7-12l15-103q28-9 51-20l79 59q5 5 13 5 7 0 14-5 72-67 92-95 4-5 4-12 0-7-4-13-9-12-29-37t-30-40q15-28 23-54l102-16q7-1 12-7t4-13z" horiz-adv-x="857.1" />

<glyph glyph-name="up-open-1" unicode="&#xe8b8;" d="M939 107l-92-92q-11-10-26-10t-25 10l-296 297-296-297q-11-10-25-10t-25 10l-93 92q-11 11-11 26t11 25l414 414q11 10 25 10t25-10l414-414q11-11 11-25t-11-26z" horiz-adv-x="1000" />

<glyph glyph-name="right-open-1" unicode="&#xe8b9;" d="M618 361l-414-415q-11-10-25-10t-25 10l-93 93q-11 11-11 25t11 25l296 297-296 296q-11 11-11 25t11 25l93 93q10 11 25 11t25-11l414-414q10-11 10-25t-10-25z" horiz-adv-x="714.3" />

<glyph glyph-name="left-open-1" unicode="&#xe8ba;" d="M654 682l-297-296 297-297q10-10 10-25t-10-25l-93-93q-11-10-25-10t-25 10l-414 415q-11 10-11 25t11 25l414 414q10 11 25 11t25-11l93-93q10-10 10-25t-10-25z" horiz-adv-x="714.3" />

<glyph glyph-name="down-open-1" unicode="&#xe8bb;" d="M939 399l-414-413q-10-11-25-11t-25 11l-414 413q-11 11-11 26t11 25l93 92q10 11 25 11t25-11l296-296 296 296q11 11 25 11t26-11l92-92q11-11 11-25t-11-26z" horiz-adv-x="1000" />

<glyph glyph-name="down-hand" unicode="&#xe8bc;" d="M786 314q0 47-18 102t-36 109-18 93v18h-357v-18q0-20-7-38t-20-35-26-28-30-27q-5-4-8-7-45-40-81-62-12-8-38-21-1-1-12-6t-20-10-20-12-17-12-7-10q0-40 17-64t55-25q24 0 47 8t38 19 31 18 27 8v-321q0-28 21-50t50-22q29 0 50 22t22 50v185q25-20 57-20 39 0 67 30 17-10 38-10t41 9 29 27q14-2 32-2 47 0 70 27t23 75z m-72 429q0 14-10 25t-25 11-25-11-11-25 11-25 25-11 25 11 10 25z m143-426q0-80-43-129t-121-48l-3 0q-43-34-100-34-12 0-24 2-30-17-66-21v-94q0-59-42-101t-101-42q-58 0-100 42t-43 101v209q-30-13-71-13-68 0-105 46t-38 115q0 21 10 39t27 31 36 22 40 21 34 18q31 20 72 56 2 1 10 8t12 10 12 12 12 13 10 13 8 13 3 12v161q0 29 21 50t50 21h357q30 0 51-21t21-50v-161q0-33 33-125 38-106 38-176z" horiz-adv-x="857.1" />

<glyph glyph-name="up-hand" unicode="&#xe8bd;" d="M714-43q0 15-10 25t-25 11-25-11-11-25 11-25 25-11 25 11 10 25z m72 427q0 105-93 105-15 0-32-3-9 17-29 27t-41 9-38-10q-28 30-67 30-14 0-31-6t-26-14v185q0 29-22 50t-50 22q-28 0-50-22t-21-50v-321q-11 0-27 8t-31 19-38 18-47 8q-37 0-55-24t-17-65q0-13 78-50 25-14 36-21 36-22 81-62 45-40 59-57 32-38 32-78v-18h357v18q0 40 18 93t36 108 18 101z m71 2q0-74-38-179-33-92-33-125v-161q0-29-21-50t-51-21h-357q-29 0-50 21t-21 50v161q0 6-3 12t-8 13-10 13-12 13-12 12-12 10-10 8q-41 36-72 56-11 7-34 18t-40 21-36 23-27 30-10 39q0 70 37 115t106 46q38 0 71-13v209q0 58 43 101t100 42q58 0 101-42t42-101v-94q35-2 66-21 12 2 24 2 57 0 100-34 77 1 122-47t45-127z" horiz-adv-x="857.1" />

<glyph glyph-name="left-hand" unicode="&#xe8be;" d="M768 64h18v357h-18q-20 0-38 7t-35 21-28 25-27 31q-4 5-7 7-40 46-62 81-8 13-21 38-1 2-6 13t-10 20-12 20-12 17-10 6q-40 0-64-17t-25-54q0-24 8-47t19-38 18-31 8-27h-321q-28 0-50-22t-22-50q0-29 22-50t50-21h185q-9-9-14-26t-6-31q0-39 30-67-10-18-10-38t9-41 27-30q-2-13-2-31 0-47 27-70t75-23q47 0 102 18t109 35 93 18z m161 36q0 15-11 25t-25 11-25-11-11-25 11-25 25-11 25 11 11 25z m71 321v-357q0-29-21-50t-50-21h-161q-33 0-125-33-106-39-176-39-80 0-129 44t-48 121l0 3q-34 42-34 99 0 12 2 24-19 32-21 67h-94q-59 0-101 42t-42 101q0 58 42 100t101 42h209q-13 34-13 72 0 68 46 105t115 38q21 0 39-10t31-28 22-35 21-40 18-35q20-30 56-72 1-1 8-9t10-12 12-12 13-13 13-10 13-8 12-2h161q29 0 50-21t21-51z" horiz-adv-x="1000" />

<glyph glyph-name="right-hand" unicode="&#xe8bf;" d="M143 100q0 15-11 25t-25 11-25-11-11-25 11-25 25-11 25 11 11 25z m786 321q0 29-22 50t-50 22h-321q0 11 8 27t19 31 18 38 8 47q0 37-24 54t-65 17q-13 0-50-77-14-25-21-37-22-35-62-81-40-45-57-59-38-32-78-32h-18v-357h18q40 0 93-18t108-35 101-18q105 0 105 93 0 15-3 31 17 9 27 30t9 41-10 38q30 28 30 67 0 14-6 31t-14 26h185q29 0 50 21t22 50z m71 1q0-59-42-101t-101-42h-94q-2-35-21-67 2-12 2-24 0-56-34-99 1-78-47-123t-127-45q-74 0-179 39-92 33-125 33h-161q-29 0-50 21t-21 50v357q0 30 21 51t50 21h161q6 0 12 2t13 8 13 10 13 13 12 12 10 12 8 9q36 42 56 72 7 12 18 35t21 40 23 35 30 28 39 10q70 0 115-38t46-105q0-38-13-72h209q58 0 101-42t42-100z" horiz-adv-x="1000" />

<glyph glyph-name="globe" unicode="&#xe8c0;" d="M429 779q116 0 215-58t156-156 57-215-57-215-156-156-215-58-216 58-155 156-58 215 58 215 155 156 216 58z m153-291q-2-1-6-5t-7-6q1 0 2 3t3 6 2 4q3 4 12 8 8 4 29 7 19 5 29-6-1 1 5 7t8 7q2 1 8 3t9 4l1 12q-7-1-10 4t-3 12q0-2-4-5 0 4-2 5t-7-1-5-1q-5 2-8 5t-5 9-2 8q-1 3-5 6t-5 6q-1 1-2 3t-1 4-3 3-3 1-4-3-4-5-2-3q-2 1-4 1t-2-1-3-1-3-2q-1-2-4-2t-5-1q8 3-1 6-5 2-9 2 6 2 5 6t-5 8h3q-1 2-5 5t-10 5-7 3q-5 3-19 5t-18 1q-3-4-3-6t2-8 2-7q1-3-3-7t-3-7q0-4 7-9t6-12q-2-4-9-9t-9-6q-3-5-1-11t6-9q1-1 1-2t-2-3-3-2-4-2l-1-1q-7-3-12 3t-7 15q-4 14-9 17-13 4-16-1-3 7-23 15-14 5-33 2 4 0 0 8-4 9-10 7 1 3 2 10t0 7q2 8 7 13 1 1 4 5t5 7 1 4q19-3 28 6 2 3 6 9t6 10q5 3 8 3t8-3 8-3q8-1 8 6t-4 11q7 0 2 10-2 4-5 5-6 2-15-3-4-2 2-4-1 0-6-6t-9-10-9 3q0 0-3 7t-5 8q-5 0-9-9 1 5-6 9t-14 4q11 7-4 15-4 3-12 3t-11-2q-2-4-3-7t3-4 6-3 6-2 5-2q8-6 5-8-1 0-5-2t-6-2-4-2q-1-3 0-8t-1-8q-3 3-5 10t-4 9q4-5-14-3l-5 0q-3 0-9-1t-12-1-7 5q-3 4 0 11 0 2 2 1-2 2-6 5t-6 5q-25-8-52-23 3 0 6 1 3 1 8 4t5 3q19 7 24 4l3 2q7-9 11-14-4 3-17 1-11-3-12-7 4-6 2-10-2 2-6 6t-8 6-8 3q-9 0-13-1-81-45-131-124 4-4 7-4 2-1 3-5t1-6 6 1q5-4 2-10 1 0 25-15 10-10 11-12 2-6-5-10-1 1-5 5t-5 2q-2-3 0-10t6-7q-4 0-5-9t-2-20 0-13l1-1q-2-6 3-19t12-11q-7-1 11-24 3-4 4-5 2-1 7-4t9-6 5-5q2-3 6-13t8-13q-2-3 5-11t6-13q-1 0-2-1t-1 0q2-4 9-8t8-7q1-2 1-6t2-6 4-1q2 11-13 35-8 13-9 16-2 2-4 8t-2 8q1 0 3 0t5-2 4-3 1-1q-1-4 1-10t7-10 10-11 6-7q4-4 8-11t0-8q5 0 11-5t10-11q3-5 4-15t3-13q1-4 5-8t7-5l9-5t7-3q3-2 10-6t12-7q6-2 9-2t8 1 8 2q8 1 16-8t12-12q20-10 30-6-1 0 1-4t4-9 5-8 3-5q3-3 10-8t10-8q4 2 4 5-1-5 4-11t10-6q8 2 8 18-17-8-27 10 0 0-2 3t-2 5-1 4 0 5 2 1q5 0 6 2t-1 7-2 8q-1 4-6 11t-7 8q-3-5-9-4t-9 5q0-1-1-3t-1-4q-7 0-8 0 1 2 1 10t2 13q1 2 3 6t5 9 2 7-3 5-9 1q-11 0-15-11-1-2-2-6t-2-6-5-4q-4-2-14-1t-13 3q-8 4-13 16t-5 20q0 6 1 15t2 14-3 14q2 1 5 5t5 6q2 1 3 1t3 0 2 1 1 3q0 1-2 2-1 1-2 1 4-1 16 1t15-1q9-6 12 1 0 1-1 6t0 7q3-15 16-5 2-1 9-3t9-2q2-1 4-3t3-3 3 0 5 4q5-8 7-13 6-23 10-25 4-2 6-1t3 5 0 8-1 7l-1 5v10l0 4q-8 2-10 7t0 10 9 10q0 1 4 2t9 4 7 4q12 11 8 20 4 0 6 5 0 0-2 2t-5 2-2 2q5 2 1 8 3 2 4 7t4 5q5-6 12-1 5 5 1 9 2 4 11 6t10 5q4-1 5 1t0 7 2 7q2 2 9 5t7 2l9 7q2 2 0 2 10-1 18 6 5 6-4 11 2 4-1 5t-9 4q2 0 7 0t5 1q9 5-3 9-10 2-24-7z m-91-490q115 21 195 106-1 2-7 2t-7 2q-10 4-13 5 1 4-1 7t-5 5-7 5-6 4q-1 1-4 3t-4 3-4 2-5 2-5-1l-2-1q-2 0-3-1t-3-2-2-1 0-2q-12 10-20 13-3 0-6 3t-6 4-6 0-6-3q-3-3-4-9t-1-7q-4 3 0 10t1 10q-1 3-6 2t-6-2-7-5-5-3-4-3-5-5q-2-2-4-6t-2-6q-1 2-7 3t-5 3q1-5 2-19t3-22q4-17-7-26-15-14-16-23-2-12 7-14 0-4-5-12t-4-12q0-3 2-9z" horiz-adv-x="857.1" />

<glyph glyph-name="award" unicode="&#xe8c1;" d="M256 357q-42 91-42 207h-143v-53q0-44 53-91t132-63z m601 154v53h-143q0-116-41-207 79 16 131 63t53 91z m72 71v-71q0-40-24-80t-62-73-97-54-120-25q-23-30-53-53-21-19-29-40t-8-50q0-30 17-51t54-21q42 0 75-25t32-64v-36q0-8-5-13t-13-5h-464q-8 0-13 5t-5 13v36q0 39 33 64t74 25q38 0 55 21t17 51q0 28-8 50t-29 40q-30 23-53 53-64 3-121 25t-96 54-63 73-23 80v71q0 23 16 38t38 16h160v53q0 37 27 63t63 27h321q37 0 63-27t26-63v-53h161q22 0 38-16t16-38z" horiz-adv-x="928.6" />

<glyph glyph-name="chart-bar" unicode="&#xe8c2;" d="M357 350v-286h-143v286h143z m214 286v-572h-142v572h142z m572-643v-72h-1143v858h71v-786h1072z m-357 500v-429h-143v429h143z m214 214v-643h-143v643h143z" horiz-adv-x="1142.9" />

<glyph glyph-name="gift" unicode="&#xe8c3;" d="M518 93v400h-179v-400q0-14 10-21t26-8h107q16 0 26 8t10 21z m-255 471h109l-70 90q-15 17-39 17-22 0-38-15t-15-38 15-38 38-16z m384 54q0 22-15 38t-38 15q-24 0-39-17l-69-90h108q22 0 38 16t15 38z m210-143v-179q0-7-5-12t-13-5h-53v-233q0-22-16-37t-38-16h-607q-22 0-38 16t-16 37v233h-53q-8 0-13 5t-5 12v179q0 8 5 13t13 5h245q-51 0-88 36t-37 89 37 88 88 37q60 0 94-43l72-92 71 92q34 43 94 43 52 0 88-37t37-88-37-89-88-36h245q8 0 13-5t5-13z" horiz-adv-x="857.1" />

<glyph glyph-name="phone" unicode="&#xe8c4;" d="M786 158q0-15-6-39t-12-38q-11-28-68-60-52-28-103-28-15 0-30 2t-32 7-26 8-31 11-28 10q-54 20-97 47-71 44-148 120t-120 148q-27 43-46 97-2 5-10 28t-12 31-8 26-7 32-2 29q0 52 29 104 31 57 59 68 14 6 38 12t39 6q8 0 12-2 10-3 30-42 6-11 16-31t20-35 17-30q2-2 10-14t12-20 4-16q0-11-16-27t-35-31-34-30-16-25q0-5 3-13t4-11 8-14 7-10q42-77 97-132t131-97q1 0 10-6t14-8 11-5 13-2q10 0 25 16t30 34 31 35 28 16q7 0 15-4t20-12 14-10q14-8 30-17t36-20 30-17q39-19 42-29 2-4 2-12z" horiz-adv-x="785.7" />

<glyph glyph-name="map" unicode="&#xe8c5;" d="M984 600q16-10 16-30l0-584q0-20-16-30-8-6-16-6t-18 6l-216 136-216-136q-18-10-34 0l-218 136-216-136q-16-10-34 0-16 10-16 30l0 584q0 20 16 30l234 146q18 10 34 0l216-136 218 136q16 10 32 0z m-750-450l0 506-168-104 0-506z m234-104l0 506-168 104 0-506z m234 104l0 506-170-104 0-506z m232-104l0 506-168 104 0-506z" horiz-adv-x="1000" />

<glyph glyph-name="monitor" unicode="&#xe8c6;" d="M900 790q42 0 71-30t29-70l0-550q0-42-29-77t-69-43l-218-44 86-38q50-28-20-28l-500 0q-98 0 32 52l36 14-220 44q-40 8-69 43t-29 77l0 550q0 40 30 70t70 30l800 0z m0-646l0 556-800 0 0-556 800 0z" horiz-adv-x="1000" />

<glyph glyph-name="mobile-1" unicode="&#xe8c7;" d="M480 840q42 0 71-29t29-71l0-780q0-40-29-70t-71-30l-380 0q-40 0-70 30t-30 70l0 780q0 42 30 71t70 29l380 0z m-190-940q30 0 50 15t20 35q0 22-20 36t-50 14q-28 0-49-15t-21-35 21-35 49-15z m210 150l0 660-420 0 0-660 420 0z" horiz-adv-x="580" />

<glyph glyph-name="cancel" unicode="&#xe8c8;" d="M724 112q0-22-15-38l-76-76q-16-15-38-15t-38 15l-164 165-164-165q-16-15-38-15t-38 15l-76 76q-16 16-16 38t16 38l164 164-164 164q-16 16-16 38t16 38l76 76q16 16 38 16t38-16l164-164 164 164q16 16 38 16t38-16l76-76q15-15 15-38t-15-38l-164-164 164-164q15-15 15-38z" horiz-adv-x="785.7" />

<glyph glyph-name="mobile-2" unicode="&#xe8c9;" d="M238-31c27 0 47 23 47 48 0 27-20 47-47 47s-48-20-48-47c0-25 20-48 48-48z m-154 794l307 0c50 0 84-34 84-81l0-670c0-42-34-75-75-75l-325 0c-41 0-75 33-75 75l0 670c0 47 34 81 84 81z m91-54c-9 0-15-7-15-16s6-16 15-16l125 0c9 0 15 7 15 16s-6 16-15 16l-125 0z m255-607l0 496-385 0 0-496 385 0z" horiz-adv-x="475" />

<glyph glyph-name="tablet-1" unicode="&#xe8ca;" d="M613 788c55 0 98-45 98-100l0-675c0-56-43-101-98-101l-514 0c-55 0-99 45-99 101l0 675c0 55 44 100 99 100l514 0z m-22-720l0 600-471 0 0-600 471 0z m-235-123c28 0 48 22 48 47 0 28-20 48-48 48s-47-20-47-48c0-25 20-47 47-47z" horiz-adv-x="711" />

<glyph glyph-name="address" unicode="&#xe8cb;" d="M426 800q20 0 20-20l0-860q0-20-20-20l-46 0q-20 0-20 20l0 440-176 0q-16 0-28 6-12 2-26 12l-120 82q-10 6-10 16t10 16l120 82q14 10 26 12 8 4 28 4l176 0 0 190q0 20 20 20l46 0z m564-208q10-6 10-16t-10-16l-118-82q-22-12-26-12-14-6-28-6l-302 0-40 230 342 0q18 0 28-4t26-12z" horiz-adv-x="1000" />

<glyph glyph-name="info-circled" unicode="&#xe8cc;" d="M571 82v89q0 8-5 13t-12 5h-54v286q0 8-5 13t-13 5h-178q-8 0-13-5t-5-13v-89q0-8 5-13t13-5h53v-179h-53q-8 0-13-5t-5-13v-89q0-8 5-13t13-5h250q7 0 12 5t5 13z m-71 500v89q0 8-5 13t-13 5h-107q-8 0-13-5t-5-13v-89q0-8 5-13t13-5h107q8 0 13 5t5 13z m357-232q0-117-57-215t-156-156-215-58-216 58-155 156-58 215 58 215 155 156 216 58 215-58 156-156 57-215z" horiz-adv-x="857.1" />

<glyph glyph-name="info" unicode="&#xe8cd;" d="M352 850q48 0 74-27t26-69q0-50-39-88t-95-38q-48 0-74 26t-24 72q0 46 35 85t97 39z m-206-1000q-100 0-54 178l60 254q14 56 0 56-12 0-54-18t-72-38l-26 44q90 78 189 126t151 48q78 0 36-162l-70-266q-16-64 6-64 44 0 118 60l30-40q-84-86-175-132t-139-46z" horiz-adv-x="460" />

<glyph glyph-name="link-ext" unicode="&#xf08e;" d="M786 332v-178q0-67-47-114t-114-47h-464q-67 0-114 47t-47 114v464q0 66 47 113t114 48h393q7 0 12-5t5-13v-36q0-8-5-13t-12-5h-393q-37 0-63-26t-27-63v-464q0-37 27-63t63-27h464q37 0 63 27t26 63v178q0 8 5 13t13 5h36q8 0 13-5t5-13z m214 482v-285q0-15-11-25t-25-11-25 11l-98 98-364-364q-5-6-13-6t-12 6l-64 64q-6 5-6 12t6 13l364 364-98 98q-11 11-11 25t11 25 25 11h285q15 0 25-11t11-25z" horiz-adv-x="1000" />

<glyph glyph-name="twitter" unicode="&#xf099;" d="M904 622q-37-54-90-93 0-8 0-23 0-73-21-145t-64-139-103-117-144-82-181-30q-151 0-276 81 19-2 43-2 126 0 224 77-59 1-105 36t-64 89q19-3 34-3 24 0 48 6-63 13-104 62t-41 115v2q38-21 82-23-37 25-59 64t-22 86q0 49 25 91 68-83 164-133t208-55q-5 21-5 41 0 75 53 127t127 53q79 0 132-57 61 12 115 44-21-64-80-100 52 6 104 28z" horiz-adv-x="928.6" />

<glyph glyph-name="facebook" unicode="&#xf09a;" d="M535 843v-147h-87q-48 0-65-20t-17-60v-106h164l-22-165h-142v-424h-171v424h-142v165h142v122q0 104 58 161t155 57q82 0 127-7z" horiz-adv-x="571.4" />

<glyph glyph-name="beaker" unicode="&#xf0c3;" d="M852 42q31-50 12-85t-78-36h-643q-59 0-78 36t12 85l280 443v222h-36q-14 0-25 11t-10 25 10 25 25 11h286q15 0 25-11t11-25-11-25-25-11h-36v-222z m-435 405l-151-240h397l-152 240-11 17v243h-71v-243z" horiz-adv-x="928.6" />

<glyph glyph-name="gplus" unicode="&#xf0d5;" d="M802 341q0-117-49-207t-138-142-206-51q-83 0-159 32t-131 87-87 131-32 159 32 159 87 131 131 87 159 32q160 0 274-107l-111-107q-65 63-163 63-69 0-127-34t-92-94-34-130 34-130 92-94 127-34q46 0 85 13t64 32 44 43 27 47 12 41h-232v141h386q7-36 7-68z m484 68v-118h-117v-116h-117v116h-117v118h117v116h117v-116h117z" horiz-adv-x="1285.7" />

<glyph glyph-name="money" unicode="&#xf0d6;" d="M429 207h214v54h-72v250h-63l-83-77 43-44q24 20 31 31h1v-160h-71v-54z m285 143q0-39-11-79t-34-75-56-56-77-22-77 22-57 56-33 75-12 79 12 79 33 75 57 56 77 22 77-22 56-56 34-75 11-79z m286-143v286q-59 0-101 42t-42 101h-643q0-59-42-101t-101-42v-286q60 0 101-42t42-101h643q0 59 42 101t101 42z m71 464v-642q0-15-10-25t-25-11h-1000q-15 0-25 11t-11 25v642q0 15 11 26t25 10h1000q14 0 25-10t10-26z" horiz-adv-x="1071.4" />

<glyph glyph-name="linkedin" unicode="&#xf0e1;" d="M195 501v-553h-184v553h184z m12 171q0-41-29-68t-75-27h-1q-46 0-74 27t-28 68q0 41 29 68t75 27 74-27 29-68z m650-407v-317h-183v296q0 59-23 92t-71 33q-35 0-58-19t-36-48q-6-17-6-45v-309h-184q1 223 1 361t0 165l-1 27h184v-80h-1q11 18 23 31t31 29 49 24 64 9q95 0 153-63t58-186z" horiz-adv-x="857.1" />

<glyph glyph-name="comment-empty" unicode="&#xf0e5;" d="M500 636q-114 0-213-39t-157-105-59-142q0-62 40-119t113-98l48-28-15-53q-13-51-39-97 85 36 154 96l24 21 32-3q38-5 72-5 114 0 213 39t157 105 59 142-59 142-157 105-213 39z m500-286q0-97-67-179t-182-130-251-48q-39 0-81 4-110-97-257-135-27-8-63-12h-3q-8 0-15 6t-9 15v1q-2 2 0 6t1 6 2 5l4 5t4 5 4 5q4 5 17 19t20 22 17 22 18 28 15 33 15 42q-88 50-138 123t-51 157q0 97 67 179t182 130 251 48 251-48 182-130 67-179z" horiz-adv-x="1000" />

<glyph glyph-name="chat-empty" unicode="&#xf0e6;" d="M393 636q-85 0-160-29t-118-79-44-107q0-45 30-88t83-73l54-32-19-46q19 11 34 21l25 18 30-6q43-8 85-8 85 0 160 29t118 79 43 106-43 107-118 79-160 29z m0 71q106 0 197-38t143-104 53-144-53-143-143-104-197-38q-48 0-98 9-70-49-155-72-21-5-48-9h-2q-6 0-12 5t-6 12q-1 1-1 3t1 4 1 3l1 3t2 3 2 3 3 3 2 2q3 3 13 14t15 16 12 17 14 21 11 25q-69 40-108 98t-40 125q0 78 53 144t143 104 197 38z m459-652q5-14 11-25t14-21 13-16 14-17 13-14q0 0 2-2t3-3 2-3 2-3l1-3t1-3 1-4-1-3q-2-8-7-13t-12-4q-28 4-48 9-86 23-156 72-50-9-98-9-151 0-263 74 32-3 49-3 90 0 172 25t148 72q69 52 107 119t37 141q0 43-13 85 72-39 114-99t42-128q0-67-40-126t-108-98z" horiz-adv-x="1000" />

<glyph glyph-name="suitcase" unicode="&#xf0f2;" d="M357 636h286v71h-286v-71z m-196 0v-715h-36q-51 0-88 37t-37 88v465q0 51 37 88t88 37h36z m625 0v-715h-572v715h72v89q0 22 15 38t38 16h322q22 0 38-16t15-38v-89h72z m214-125v-465q0-51-37-88t-88-37h-36v715h36q51 0 88-37t37-88z" horiz-adv-x="1000" />

<glyph glyph-name="angle-left" unicode="&#xf104;" d="M350 546q0-7-6-12l-219-220 219-219q6-6 6-13t-6-13l-28-28q-5-5-12-5t-13 5l-260 261q-6 5-6 12t6 13l260 260q5 6 13 6t12-6l28-28q6-5 6-13z" horiz-adv-x="357.1" />

<glyph glyph-name="angle-right" unicode="&#xf105;" d="M332 314q0-7-5-12l-261-261q-5-5-12-5t-13 5l-28 28q-6 6-6 13t6 13l219 219-219 220q-6 5-6 12t6 13l28 28q5 6 13 6t12-6l261-260q5-5 5-13z" horiz-adv-x="357.1" />

<glyph glyph-name="angle-up" unicode="&#xf106;" d="M600 189q0-7-6-12l-28-28q-5-6-12-6t-13 6l-220 219-219-219q-5-6-13-6t-12 6l-28 28q-6 5-6 12t6 13l260 260q5 6 12 6t13-6l260-260q6-5 6-13z" horiz-adv-x="642.9" />

<glyph glyph-name="angle-down" unicode="&#xf107;" d="M600 439q0-7-6-12l-260-261q-5-5-13-5t-12 5l-260 261q-6 5-6 12t6 13l28 28q5 6 12 6t13-6l219-219 220 219q5 6 13 6t12-6l28-28q6-5 6-13z" horiz-adv-x="642.9" />

<glyph glyph-name="desktop" unicode="&#xf108;" d="M1000 296v465q0 7-5 12t-13 6h-893q-7 0-12-6t-6-12v-465q0-7 6-12t12-5h893q7 0 13 5t5 12z m71 465v-607q0-37-26-63t-63-27h-303q0-20 9-43t17-40 9-24q0-14-10-25t-25-11h-286q-15 0-25 11t-11 25q0 8 9 25t18 39 9 43h-304q-36 0-63 27t-26 63v607q0 37 26 63t63 26h893q37 0 63-26t26-63z" horiz-adv-x="1071.4" />

<glyph glyph-name="laptop" unicode="&#xf109;" d="M232 136q-37 0-63 26t-26 63v393q0 37 26 63t63 26h607q37 0 63-26t27-63v-393q0-37-27-63t-63-26h-607z m-18 482v-393q0-7 6-13t12-5h607q8 0 13 5t5 13v393q0 7-5 12t-13 6h-607q-7 0-12-6t-6-12z m768-518h89v-54q0-22-26-37t-63-16h-893q-36 0-63 16t-26 37v54h982z m-402-54q9 0 9 9t-9 9h-89q-9 0-9-9t9-9h89z" horiz-adv-x="1071.4" />

<glyph glyph-name="tablet" unicode="&#xf10a;" d="M357 64q0 15-10 25t-26 11-25-11-10-25 10-25 25-10 26 10 10 25z m214 90v535q0 8-5 13t-12 5h-465q-7 0-12-5t-6-13v-535q0-8 6-13t12-5h465q7 0 12 5t5 13z m72 535v-607q0-37-26-63t-63-26h-465q-36 0-63 26t-26 63v607q0 37 26 63t63 27h465q36 0 63-27t26-63z" horiz-adv-x="642.9" />

<glyph glyph-name="mobile" unicode="&#xf10b;" d="M259 64q0 19-13 32t-32 13-31-13-13-32 13-31 31-13 32 13 13 31z m116 90v392q0 8-5 13t-13 5h-286q-7 0-12-5t-5-13v-392q0-8 5-13t12-5h286q7 0 13 5t5 13z m-107 473q0 9-9 9h-89q-9 0-9-9t9-9h89q9 0 9 9z m161 9v-572q0-29-22-50t-50-21h-286q-29 0-50 21t-21 50v572q0 29 21 50t50 21h286q29 0 50-21t22-50z" horiz-adv-x="428.6" />

<glyph glyph-name="quote-left" unicode="&#xf10d;" d="M429 314v-214q0-45-32-76t-76-31h-214q-44 0-76 31t-31 76v393q0 58 23 111t61 91 91 61 111 23h35q15 0 26-11t10-25v-72q0-14-10-25t-26-10h-35q-59 0-101-42t-42-101v-18q0-22 16-38t37-16h125q45 0 76-31t32-76z m500 0v-214q0-45-32-76t-76-31h-214q-44 0-76 31t-31 76v393q0 58 23 111t61 91 91 61 111 23h35q15 0 26-11t10-25v-72q0-14-10-25t-26-10h-35q-59 0-101-42t-42-101v-18q0-22 16-38t37-16h125q45 0 76-31t32-76z" horiz-adv-x="928.6" />

<glyph glyph-name="quote-right" unicode="&#xf10e;" d="M429 671v-392q0-58-23-111t-61-91-91-61-111-23h-36q-14 0-25 11t-11 25v71q0 15 11 25t25 11h36q59 0 101 42t42 101v17q0 23-16 38t-38 16h-125q-44 0-76 31t-31 76v214q0 45 31 76t76 32h214q45 0 76-32t32-76z m500 0v-392q0-58-23-111t-61-91-91-61-111-23h-36q-14 0-25 11t-11 25v71q0 15 11 25t25 11h36q59 0 101 42t42 101v17q0 23-16 38t-38 16h-125q-44 0-76 31t-31 76v214q0 45 31 76t76 32h214q45 0 76-32t32-76z" horiz-adv-x="928.6" />

<glyph glyph-name="github" unicode="&#xf113;" d="M357 171q0-22-7-45t-24-43-40-19-41 19-24 43-7 45 7 46 24 43 41 19 40-19 24-43 7-46z m357 0q0-22-7-45t-24-43-40-19-41 19-24 43-7 45 7 46 24 43 41 19 40-19 24-43 7-46z m90 0q0 67-39 114t-104 47q-23 0-109-12-40-6-88-6t-87 6q-85 12-109 12-66 0-104-47t-39-114q0-49 18-85t45-58 68-33 78-17 83-4h94q46 0 83 4t78 17 69 33 45 58 18 85z m125 99q0-116-34-185-22-43-59-74t-79-48-95-27-96-12-93-3q-43 0-79 2t-82 7-85 17-77 29-67 45-48 64q-35 69-35 185 0 132 76 221-15 45-15 95 0 64 28 121 61 0 106-22t106-69q82 20 172 20 83 0 157-18 58 46 104 67t105 22q29-57 29-121 0-49-15-94 76-89 76-222z" horiz-adv-x="928.6" />

<glyph glyph-name="code" unicode="&#xf121;" d="M344 69l-28-28q-5-5-12-5t-13 5l-260 261q-6 5-6 12t6 13l260 260q5 6 13 6t12-6l28-28q6-5 6-13t-6-12l-219-220 219-219q6-6 6-13t-6-13z m330 596l-208-721q-2-7-9-11t-13-1l-34 9q-8 3-11 9t-2 14l209 720q2 8 8 11t13 2l35-10q7-2 11-9t1-13z m367-363l-260-261q-6-5-13-5t-13 5l-28 28q-5 6-5 13t5 13l219 219-219 220q-5 5-5 12t5 13l28 28q6 6 13 6t13-6l260-260q5-5 5-13t-5-12z" horiz-adv-x="1071.4" />

<glyph glyph-name="direction" unicode="&#xf124;" d="M782 655l-357-714q-10-20-32-20-3 0-8 1-13 3-20 13t-8 22v322h-321q-13 0-22 7t-13 20 2 23 17 17l714 357q7 4 16 4 15 0 25-10 9-8 10-20t-3-22z" horiz-adv-x="785.7" />

<glyph glyph-name="rocket" unicode="&#xf135;" d="M804 600q0 22-16 38t-38 16-38-16-16-38 16-38 38-16 38 16 16 38z m125 161q0-139-43-240t-141-202q-45-44-109-98l-11-211q-1-9-9-15l-214-125q-4-2-9-2-7 0-13 5l-36 36q-7 7-4 17l47 155-156 156-154-47q-2-1-6-1-7 0-12 5l-36 36q-10 11-3 22l125 214q6 8 15 9l211 11q54 64 98 109 105 104 200 144t241 40q7 0 13-6t6-12z" horiz-adv-x="928.6" />

<glyph glyph-name="play-circled" unicode="&#xf144;" d="M429 779q116 0 215-58t156-156 57-215-57-215-156-156-215-58-216 58-155 156-58 215 58 215 155 156 216 58z m214-460q18 10 18 31t-18 31l-304 178q-17 11-35 1-18-11-18-31v-358q0-20 18-31 9-4 17-4 10 0 18 5z" horiz-adv-x="857.1" />

<glyph glyph-name="euro" unicode="&#xf153;" d="M545 121l19-89q2-7-1-13t-10-8l-3 0q-2-1-6-2t-9-3-12-3-14-3-16-2-19-3-21-2-21 0q-131 0-228 73t-133 196h-53q-7 0-13 5t-5 13v63q0 7 5 12t13 6h37q-1 31 0 58h-37q-8 0-13 5t-5 13v64q0 8 5 13t13 5h55q37 117 135 188t224 72q57 0 108-13 6-2 11-9 4-6 2-13l-24-89q-2-7-8-11t-13-1l-2 1q-3 0-7 1l-10 2t-12 2-15 2-16 1-16 1q-71 0-126-36t-84-98h261q9 0 14-7 6-7 4-15l-13-63q-3-15-18-15h-273q-1-20 0-58h257q8 0 13-7 5-7 4-15l-14-63q-1-6-6-10t-11-4h-216q27-65 84-104t127-38q10 0 20 1t19 2 16 2 14 3 10 3l7 1 3 2q7 2 14-2 7-3 9-11z" horiz-adv-x="571.4" />

<glyph glyph-name="pound" unicode="&#xf154;" d="M569 216v-205q0-8-5-13t-13-5h-533q-8 0-13 5t-5 13v83q0 8 5 13t13 5h54v214h-53q-8 0-13 5t-5 13v73q0 8 5 13t13 5h53v124q0 96 69 158t175 62q104 0 187-70 5-5 6-12t-4-12l-57-71q-5-6-13-7-7-1-13 4-2 3-14 11t-39 18-51 10q-48 0-77-27t-29-68v-120h170q8 0 13-5t5-13v-73q0-7-5-13t-13-5h-170v-211h231v101q0 7 5 12t13 5h90q8 0 13-5t5-12z" horiz-adv-x="571.4" />

<glyph glyph-name="dollar" unicode="&#xf155;" d="M546 189q0-86-56-147t-144-77v-97q0-8-5-13t-13-5h-75q-7 0-13 5t-5 13v97q-37 5-71 18t-57 25-41 26-26 21-10 10q-9 12-1 23l58 76q3 5 12 6 9 1 14-5l1-1q63-55 135-70 21-4 42-4 45 0 79 24t35 68q0 16-9 30t-18 23-33 21-37 18-45 18q-21 9-34 14t-34 15-35 17-32 20-29 24-25 27-20 32-11 37-5 44q0 77 55 135t142 75v100q0 7 5 13t13 5h75q8 0 13-5t5-13v-98q32-3 62-13t48-19 36-20 21-17 9-7q9-11 3-22l-46-81q-4-9-12-9-8-2-15 4-2 2-9 7t-21 14-33 18-42 15-47 6q-53 0-87-24t-33-62q0-14 4-27t17-23 22-18 31-18 34-15 39-15q30-11 45-17t43-20 42-24 34-28 30-35 18-43 7-52z" horiz-adv-x="571.4" />

<glyph glyph-name="rupee" unicode="&#xf156;" d="M501 588v-57q0-8-5-13t-13-5h-93q-13-80-72-131t-154-61q93-99 256-299 8-9 2-19-5-10-16-10h-109q-9 0-14 7-171 204-278 318-5 5-5 13v70q0 8 5 13t13 5h62q74 0 119 24t57 70h-238q-8 0-13 5t-5 13v57q0 8 5 13t13 5h230q-31 63-149 63h-81q-7 0-13 5t-5 13v74q0 8 5 13t13 5h464q8 0 13-5t5-13v-57q0-8-5-13t-13-5h-130q26-34 36-80h95q8 0 13-5t5-13z" horiz-adv-x="501.1" />

<glyph glyph-name="yen" unicode="&#xf157;" d="M337-7h-96q-8 0-13 5t-5 13v184h-161q-7 0-13 5t-5 13v57q0 8 5 13t13 5h161v48h-161q-7 0-13 5t-5 12v58q0 8 5 13t13 5h119l-179 323q-4 9 0 18 6 9 16 9h108q11 0 16-10l120-238q11-21 32-69 5 13 17 38t15 34l107 234q4 11 16 11h106q10 0 15-9 5-8 1-18l-175-323h120q7 0 13-5t5-13v-58q0-7-5-12t-13-5h-162v-48h162q7 0 13-5t5-13v-57q0-8-5-13t-13-5h-162v-184q0-7-5-13t-12-5z" horiz-adv-x="573.1" />

<glyph glyph-name="rouble" unicode="&#xf158;" d="M582 535q0 56-36 90t-96 35h-178v-250h178q60 0 96 34t36 91z m132 0q0-108-70-176t-182-68h-190v-66h282q7 0 12-5t5-13v-71q0-8-5-13t-12-5h-282v-107q0-8-5-13t-13-5h-93q-8 0-13 5t-5 13v107h-125q-8 0-13 5t-5 13v71q0 8 5 13t13 5h125v66h-125q-8 0-13 5t-5 13v83q0 7 5 12t13 6h125v351q0 8 5 13t13 5h301q111 0 182-68t70-176z" horiz-adv-x="714.3" />

<glyph glyph-name="bitcoin" unicode="&#xf15a;" d="M651 493q10-102-73-144 65-16 98-58t25-119q-4-40-18-70t-36-49-54-33-68-19-81-9v-142h-86v140q-45 0-68 1v-141h-86v142q-10 0-30 1t-31 0h-112l18 102h62q27 0 32 28v225h9q-4 0-9 0v161q-7 37-50 37h-62v92l119-1q35 0 54 1v141h86v-138q45 1 68 1v137h86v-141q44-4 78-13t63-25 46-43 20-64z m-120-304q0 20-8 35t-21 26-32 17-36 11-42 5-38 1-36 0-27-1v-189q5 0 21 0t27 0 29 1 33 2 32 5 31 8 26 11 22 17 14 22 5 29z m-39 265q0 19-7 33t-17 23-27 16-31 9-34 5-32 1-31 0-22-1v-171q3 0 20 0t26 0 27 1 31 3 29 6 27 10 21 15 15 22 5 28z" horiz-adv-x="714.3" />

<glyph glyph-name="youtube" unicode="&#xf167;" d="M542 156v-118q0-37-22-37-13 0-25 12v168q12 12 25 12 22 0 22-37z m189-1v-25h-51v25q0 38 25 38t26-38z m-540 122h60v52h-174v-52h59v-318h55v318z m161-318h50v276h-50v-211q-17-23-32-23-10 0-11 11-1 2-1 20v203h-50v-218q0-28 5-41 7-21 32-21 27 0 57 34v-30z m240 83v110q0 41-5 55-10 31-40 31-28 0-52-30v121h-50v-370h50v27q25-31 52-31 30 0 40 31 5 15 5 56z m188 6v7h-51q0-29-1-34-4-20-22-20-26 0-26 38v49h100v57q0 44-15 65-22 28-59 28-38 0-60-28-15-21-15-65v-96q0-44 16-65 22-29 60-29 40 0 60 30 10 15 12 30 1 5 1 33z m-339 509v117q0 39-24 39t-24-39v-117q0-39 24-39t24 39z m401-419q0-131-14-195-8-33-33-56t-57-25q-102-12-309-12t-310 12q-32 3-57 25t-32 56q-15 62-15 195 0 131 15 195 7 33 32 56t57 26q103 11 310 11t309-11q33-4 58-26t32-56q14-62 14-195z m-557 712h57l-67-223v-151h-56v151q-8 42-34 119-21 57-37 104h60l39-147z m207-186v-97q0-46-16-66-21-29-59-29-37 0-59 29-15 21-15 66v97q0 45 15 66 22 28 59 28 38 0 59-28 16-21 16-66z m187 91v-279h-51v31q-30-35-58-35-25 0-33 21-4 13-4 42v220h51v-205q0-19 0-20 2-12 12-12 15 0 32 24v213h51z" horiz-adv-x="857.1" />

<glyph glyph-name="xing" unicode="&#xf168;" d="M333 478q-5-10-143-255-15-25-36-25h-134q-12 0-17 9t0 20l141 250q1 0 0 1l-90 156q-7 12 0 20 5 9 17 9h134q22 0 37-26z m450 358q6-9 0-21l-295-521v0l188-344q6-11 0-20-5-9-17-9h-134q-23 0-37 25l-189 348q10 18 296 525 14 25 36 25h135q12 0 17-8z" horiz-adv-x="785.7" />

<glyph glyph-name="youtube-play" unicode="&#xf16a;" d="M397 221l270 139-270 141v-280z m103 481q94 0 181-3t128-5l41-2q0 0 9-1t13-2 13-2 16-5 16-7 17-11 16-15q4-3 9-10t16-33 15-56q4-36 7-76t3-64v-98q1-81-10-162-4-30-14-55t-18-35l-8-9q-7-8-16-15t-17-10-16-7-16-5-13-2-13-2-9-1q-140-11-350-11-115 2-201 4t-111 4l-28 3-20 2q-20 3-30 5t-29 12-31 23q-4 3-9 10t-16 33-15 56q-4 36-7 76t-3 64v98q-1 81 10 162 4 31 14 55t18 35l8 9q8 9 16 15t17 11 16 7 16 5 13 2 13 2 9 1q140 10 350 10z" horiz-adv-x="1000" />

<glyph glyph-name="instagram" unicode="&#xf16d;" d="M571 350q0 59-41 101t-101 42-101-42-42-101 42-101 101-42 101 42 41 101z m77 0q0-91-64-156t-155-64-156 64-64 156 64 156 156 64 155-64 64-156z m61 229q0-21-15-36t-37-15-36 15-15 36 15 36 36 15 37-15 15-36z m-280 123q-4 0-43 0t-59 0-54-2-57-5-40-11q-28-11-49-32t-33-49q-6-16-10-40t-6-58-1-53 0-59 0-43 0-43 0-59 1-53 6-58 10-40q12-28 33-49t49-32q16-6 40-11t57-5 54-2 59 0 43 0 42 0 59 0 54 2 58 5 39 11q28 11 50 32t32 49q6 16 10 40t6 58 1 53 0 59 0 43 0 43 0 59-1 53-6 58-10 40q-11 28-32 49t-50 32q-16 6-39 11t-58 5-54 2-59 0-42 0z m428-352q0-128-3-177-5-116-69-180t-179-69q-50-3-177-3t-177 3q-116 6-180 69t-69 180q-3 49-3 177t3 177q5 116 69 180t180 69q49 3 177 3t177-3q116-6 179-69t69-180q3-49 3-177z" horiz-adv-x="857.1" />

<glyph glyph-name="flickr" unicode="&#xf16e;" d="M696 779q67 0 114-48t47-113v-536q0-66-47-113t-114-48h-535q-67 0-114 48t-47 113v536q0 66 47 113t114 48h535z m-306-429q0 49-35 84t-84 34-83-34-35-84 35-84 83-34 84 34 35 84z m314 0q0 49-34 84t-84 34-84-34-34-84 34-84 84-34 84 34 34 84z" horiz-adv-x="857.1" />

<glyph glyph-name="tumblr" unicode="&#xf173;" d="M527 108l44-132q-12-19-61-37t-99-18q-58-1-107 15t-79 41-53 59-31 67-9 66v304h-94v120q40 14 72 39t51 50 32 57 19 55 8 49q1 3 3 5t4 2h136v-237h186v-140h-186v-289q0-17 3-31t13-30 28-23 45-8q44 1 75 16z" horiz-adv-x="571.4" />

<glyph glyph-name="down" unicode="&#xf175;" d="M427 125q4-10-3-19l-195-215q-6-5-13-5-8 0-13 5l-198 215q-8 9-3 19 5 11 16 11h125v696q0 8 5 13t13 5h107q8 0 13-5t5-13v-696h125q11 0 16-11z" horiz-adv-x="428.6" />

<glyph glyph-name="up" unicode="&#xf176;" d="M427 575q-5-11-16-11h-125v-696q0-8-5-13t-13-5h-107q-8 0-13 5t-5 13v696h-125q-12 0-16 11t3 19l195 215q5 5 13 5 7 0 13-5l198-215q7-8 3-19z" horiz-adv-x="428.6" />

<glyph glyph-name="left" unicode="&#xf177;" d="M1000 404v-108q0-7-5-12t-13-5h-696v-125q0-12-11-17t-19 3l-215 196q-5 5-5 12 0 8 5 14l215 197q9 8 19 4 11-5 11-17v-125h696q8 0 13-5t5-12z" horiz-adv-x="1000" />

<glyph glyph-name="right" unicode="&#xf178;" d="M964 352q0-8-5-14l-215-197q-8-8-19-4-11 5-11 17v125h-696q-8 0-13 5t-5 12v108q0 7 5 12t13 5h696v125q0 12 11 17t19-3l215-195q5-6 5-13z" horiz-adv-x="1000" />

<glyph glyph-name="apple" unicode="&#xf179;" d="M777 172q-21-70-68-139-72-110-144-110-27 0-78 18-48 18-84 18-34 0-79-19-45-19-74-19-85 0-168 145-82 146-82 281 0 127 63 208 63 81 159 81 40 0 98-17 58-17 77-17 25 0 80 19 57 19 97 19 66 0 119-36 29-20 58-56-44-37-64-66-36-52-36-115 0-69 38-125t88-70z m-209 655q0-34-17-76-16-42-52-77-30-30-60-40-20-7-58-10 2 83 44 143 41 60 139 83 1-2 2-6t1-6q0-2 0-6t1-5z" horiz-adv-x="785.7" />

<glyph glyph-name="dribbble" unicode="&#xf17d;" d="M571 13q-23 134-78 278h-1l-1-1q-9-3-24-9t-56-27-77-46-73-64-57-82l-9 6q103-84 234-84 73 0 142 29z m-103 339q-11 27-29 62-174-52-376-52 0-4 0-12 0-69 24-132t69-112q28 49 69 93t80 69 73 45 55 27l21 7q2 1 7 2t7 3z m-59 118q-67 119-137 211-77-36-130-104t-72-152q169 0 339 45z m381-178q-117 33-228 16 49-133 71-262 62 42 104 106t53 140z m-449 414q-1 0-1-1 0 1 1 1z m329-81q-103 91-241 91-43 0-87-10 73-95 137-214 39 15 73 34t54 34 36 32 21 23z m125-271q-2 129-83 229l-1-1q-5-7-11-13t-24-25-40-34-55-36-74-36q14-30 25-53 1-3 3-10t5-9q20 2 41 4t41 1 39-1 35-2 32-3 27-4 20-3 14-3z m62-4q0-117-57-215t-156-156-215-58-216 58-155 156-58 215 58 215 155 156 216 58 215-58 156-156 57-215z" horiz-adv-x="857.1" />

<glyph glyph-name="skype" unicode="&#xf17e;" d="M655 257q0 28-11 51t-27 38-41 27-46 19-49 13l-58 14q-17 4-25 6t-19 6-17 9-9 12-4 16q0 43 80 43 24 0 43-6t30-16 21-19 23-16 27-7q26 0 42 18t16 43q0 31-32 55t-79 38-101 13q-38 0-74-9t-67-26-49-48-19-72q0-34 10-60t32-42 44-27 58-18l81-20q51-12 63-20 18-11 18-34 0-21-23-36t-58-14q-29 0-51 9t-37 22-25 25-26 21-30 9q-28 0-42-17t-14-41q0-52 68-88t162-37q41 0 78 10t69 30 49 52 19 74z m202-121q0-89-63-152t-151-63q-73 0-131 45-43-9-83-9-80 0-153 31t-126 84-83 125-31 153q0 41 9 84-45 58-45 130 0 89 63 152t151 63q73 0 131-45 43 9 84 9 79 0 152-31t126-84 84-125 30-153q0-41-8-84 44-58 44-130z" horiz-adv-x="857.1" />

<glyph glyph-name="foursquare" unicode="&#xf180;" d="M558 608l21 108q3 13-5 22t-20 10h-397q-13 0-22-10t-8-20v-615q0-4 3 0l162 196q13 15 22 19t26 4h134q12 0 20 8t11 17q13 72 20 106 2 12-6 23t-21 10h-164q-16 0-26 11t-11 27v23q0 16 11 27t26 10h193q10 0 20 7t11 17z m127 124q-9-41-30-149t-39-195-19-97q-4-12-5-18t-8-18-14-19-21-12-33-5h-151q-7 0-12-6-5-5-238-275-12-14-33-16t-27 3q-30 12-30 54v787q0 31 21 58t67 26h495q53 0 71-30t6-88z m0 0l-88-441q2 9 19 97t39 195 30 149z" horiz-adv-x="714.3" />

<glyph glyph-name="trello" unicode="&#xf181;" d="M393 100v571q0 8-5 13t-13 5h-268q-8 0-13-5t-5-13v-571q0-8 5-13t13-5h268q8 0 13 5t5 13z m375 214v357q0 8-5 13t-13 5h-268q-8 0-13-5t-5-13v-357q0-7 5-12t13-6h268q8 0 13 6t5 12z m89 429v-786q0-14-10-25t-26-11h-785q-15 0-25 11t-11 25v786q0 14 11 25t25 11h785q15 0 26-11t10-25z" horiz-adv-x="857.1" />

<glyph glyph-name="vkontakte" unicode="&#xf189;" d="M1070 560q13-36-84-164-13-18-36-48-22-28-31-40t-17-27-7-24 8-19 18-24 32-30q2-1 2-2 79-73 107-123 2-3 4-7t4-15-1-19-14-15-33-7l-142-3q-14-2-32 3t-29 13l-11 6q-17 12-39 36t-38 43-34 33-32 8q-1 0-4-2t-10-8-12-16-9-29-4-44q0-8-2-15t-4-10l-2-3q-10-11-30-12h-64q-40-3-81 9t-74 29-57 37-40 32l-14 14q-5 5-15 17t-40 50-59 85-68 117-73 152q-4 9-4 15t2 9l2 3q9 11 32 11l153 1q7-1 13-3t9-5l3-2q9-6 13-18 11-28 26-57t23-46l9-16q16-34 31-58t27-38 23-22 19-8 15 3q1 1 3 3t7 12 7 26 5 46 0 69q-1 23-5 41t-7 26l-4 6q-14 19-47 24-8 2 3 14 8 10 21 17 29 14 133 13 46-1 75-7 12-3 19-8t12-13 5-18 2-25 0-31-2-40 0-46q0-6-1-23t0-27 2-22 6-22 13-14q4-1 9-2t15 6 21 19 29 38 38 60q33 58 60 125 2 6 5 10t6 6l3 2 2 1t8 2 11 0l160 1q22 3 36-1t17-10z" horiz-adv-x="1071.4" />

<glyph glyph-name="weibo" unicode="&#xf18a;" d="M377 134q11 19 6 38t-25 28q-19 8-41 0t-33-25q-13-19-8-38t24-29 42-1 35 27z m52 67q5 7 2 15t-10 10q-7 3-16 0t-12-10q-9-18 8-26 8-2 16 1t12 10z m97-60q-25-57-88-83t-125-7q-60 19-82 71t3 104q27 52 85 78t117 10q62-16 89-66t1-107z m174 90q-5 53-49 94t-117 61-153 12q-124-13-206-79t-74-148q5-53 50-94t116-61 153-12q125 13 206 79t74 148z m172-3q0-38-20-77t-61-77-94-65-126-47-151-17-154 19-134 52-96 84-36 111q0 64 39 137t110 144q94 94 191 131t137-3q36-36 11-117-2-8 0-11t5-4 8 0 8 2l3 1q78 33 138 33t85-34q25-35 0-99-1-7-3-11t3-7 7-5 9-3q32-10 58-26t44-46 19-65z m-41 349q23-27 30-61t-3-66q-5-12-17-18t-25-3q-12 5-19 17t-2 25q11 35-13 62t-60 19q-13-3-25 5t-14 20q-3 14 5 25t20 14q34 7 67-3t56-36z m101 91q49-54 63-125t-8-134q-5-15-19-23t-29-2-22 19-3 29q16 46 6 96t-45 88q-35 39-83 54t-96 4q-16-3-29 6t-17 24 5 29 25 16q68 15 136-6t116-75z" horiz-adv-x="1000" />

<glyph glyph-name="try" unicode="&#xf195;" d="M643 386q0-107-53-197t-143-143-197-53h-89q-8 0-13 5t-5 13v341l-120-37q-2-1-5-1-6 0-11 4-7 5-7 14v72q0 12 13 17l130 40v51l-120-36q-2-1-5-1-6 0-11 3-7 6-7 15v71q0 13 13 18l130 39v140q0 8 5 13t13 5h89q8 0 13-5t5-13v-101l209 64q9 3 16-2t7-15v-71q0-13-13-18l-219-67v-52l209 65q9 3 16-3t7-15v-71q0-13-13-17l-219-68v-272q105 8 177 85t73 183q0 8 5 13t13 5h89q8 0 13-5t5-13z" horiz-adv-x="642.9" />

<glyph glyph-name="slack" unicode="&#xf198;" d="M848 417q34 0 57-23t24-56q0-54-52-73l-96-33 31-93q4-12 4-26 0-33-24-57t-56-24q-26 0-48 15t-29 40l-31 92-173-59 31-91q4-14 4-27 0-33-23-57t-57-24q-27 0-48 15t-29 41l-31 91-85-30q-17-5-28-5-34 0-57 22t-23 57q0 26 16 47t40 30l87 29-59 175-87-30q-14-5-27-5-33 0-56 23t-23 56q0 26 15 48t40 29l88 30-30 88q-4 14-4 27 0 33 23 57t57 24q26 0 48-16t29-40l30-89 173 59-30 89q-4 13-4 26 0 33 23 57t57 24q26 0 48-15t30-40l29-90 91 31q11 3 24 3 33 0 57-22t24-55q0-25-17-45t-41-29l-88-30 59-177 91 32q13 4 26 4z m-443-146l173 58-59 176-173-60z" horiz-adv-x="928.6" />

<glyph glyph-name="yahoo" unicode="&#xf19e;" d="M479 316l8-395q-35 7-59 7-23 0-59-7l8 395q-23 39-94 165t-121 209-101 160q32-8 60-8 25 0 62 8 35-62 75-128t93-154 77-127q21 34 61 99t66 106 58 98 60 106q30-8 60-8 31 0 63 8-15-22-33-49t-28-44-31-54-28-47q-81-138-197-340z" horiz-adv-x="857.1" />

<glyph glyph-name="reddit" unicode="&#xf1a1;" d="M611 199q9-9 0-17-34-35-111-35t-111 35q-9 8 0 17 3 3 8 3t9-3q27-28 94-28 67 0 94 28 4 3 9 3t8-3z m-171 101q0-21-15-35t-35-15-35 15-15 35q0 21 15 36t35 14 35-15 15-35z m220 0q0-21-15-35t-35-15-35 15-15 35 15 35 35 15 35-14 15-36z m140 67q0 27-19 47t-48 19-48-20q-72 50-173 54l35 158 112-26q0-20 14-35t35-14 36 15 14 35-14 35-36 15q-30 0-44-28l-124 28q-10 3-14-9l-38-174q-101-4-173-54-19 20-48 20-28 0-48-19t-19-47q0-20 10-36t28-24q-4-16-4-32 0-79 79-135t188-57q110 0 188 57t78 135q0 18-4 32 17 8 27 24t10 36z m200-17q0-102-40-194t-106-160-160-106-194-40-194 40-160 106-106 160-40 194 40 194 106 160 160 106 194 40 194-40 160-106 106-160 40-194z" horiz-adv-x="1000" />

<glyph glyph-name="stumbleupon" unicode="&#xf1a4;" d="M593 453v66q0 23-17 40t-40 16-40-16-17-40v-342q0-98-70-167t-170-69q-99 0-169 70t-70 169v149h183v-146q0-24 17-41t40-16 40 16 17 41v346q0 95 71 163t168 67q98 0 168-68t71-164v-76l-109-32z m295-124h183v-149q0-99-70-169t-169-70q-99 0-169 69t-70 168v150l73-34 109 32v-151q0-23 16-40t41-16 40 16 16 40v154z" horiz-adv-x="1071.4" />

<glyph glyph-name="delicious" unicode="&#xf1a5;" d="M821 82v268h-392v393h-268q-52 0-89-37t-36-88v-268h393v-393h267q52 0 89 37t36 88z m36 536v-536q0-66-47-113t-114-48h-535q-67 0-114 48t-47 113v536q0 66 47 113t114 48h535q67 0 114-48t47-113z" horiz-adv-x="857.1" />

<glyph glyph-name="digg" unicode="&#xf1a6;" d="M183 693h114v-549h-297v389h183v160z m0-457v206h-69v-206h69z m160 297v-389h114v389h-114z m0 160v-114h114v114h-114z m160-160h297v-526h-297v91h183v46h-183v389z m183-297v206h-69v-206h69z m160 297h297v-526h-297v91h183v46h-183v389z m183-297v206h-69v-206h69z" horiz-adv-x="1142.9" />

<glyph glyph-name="behance" unicode="&#xf1b4;" d="M1031 661h-285v-69h285v69z m-140-238q-51 0-82-29t-34-80h227q-10 109-111 109z m9-326q35 0 68 18t42 48h123q-55-171-238-171-119 0-190 73t-70 194q0 116 72 193t188 77q77 0 134-38t86-100 28-139q0-9-1-26h-367q0-62 32-96t93-33z m-745 28h165q114 0 114 93 0 100-111 100h-168v-193z m0 299h156q44 0 69 21t26 63q0 80-106 80h-145v-164z m-155 284h332q48 0 86-8t71-26 50-54 17-86q0-101-96-147 64-17 96-64t33-114q0-41-14-76t-37-58-55-39-67-24-75-7h-341v703z" horiz-adv-x="1142.9" />

<glyph glyph-name="tree" unicode="&#xf1bb;" d="M839 29q0-15-10-25t-25-11h-258q0-10 3-49t3-61q0-14-10-23t-24-10h-179q-14 0-24 10t-10 23q0 22 3 61t3 49h-257q-15 0-25 11t-11 25 11 25l224 225h-128q-14 0-25 10t-11 25 11 25l224 225h-110q-14 0-25 11t-10 25 10 25l215 214q10 11 25 11t25-11l214-214q11-10 11-25t-11-25-25-11h-110l224-225q11-10 11-25t-11-25-25-10h-128l225-225q10-11 10-25z" horiz-adv-x="857.1" />

<glyph glyph-name="spotify" unicode="&#xf1bc;" d="M629 175q0 18-17 28-107 64-249 64-74 0-160-19-24-5-24-29 0-11 8-19t20-8q2 0 20 5 74 15 136 15 126 0 221-58 11-6 19-6 10 0 18 8t8 19z m54 120q0 22-20 34-132 79-306 79-85 0-169-24-27-7-27-36 0-14 10-23t24-10q4 0 20 4 69 19 141 19 155 0 272-69 13-8 21-8 14 0 24 10t10 24z m60 138q0 26-23 39-70 41-163 62t-191 21q-114 0-204-26-12-4-21-15t-9-27q0-17 12-29t28-11q7 0 23 4 74 21 171 21 89 0 173-19t141-53q12-7 23-7 16 0 28 11t12 29z m114-83q0-117-57-215t-156-156-215-58-216 58-155 156-58 215 58 215 155 156 216 58 215-58 156-156 57-215z" horiz-adv-x="857.1" />

<glyph glyph-name="soundcloud" unicode="&#xf1be;" d="M438 84l8 135-8 292q-1 5-5 9t-9 4q-5 0-9-4t-4-9l-7-292 7-135q1-5 5-9t8-3q12 0 14 12z m165 17l6 117-7 327q0 9-7 14-5 3-9 3t-9-3q-7-5-7-14l-1-3-5-323q0-1 6-132v0q0-6 3-10 5-6 13-6 6 0 11 5 5 4 5 11z m-583 189l11-71-11-70q-2-5-5-5t-5 5l-10 70 10 71q1 5 5 5t5-5z m48 44l14-115-14-113q-2-5-6-5-5 0-5 5l-13 113 13 115q0 5 5 5 4 0 6-5z m156-252z m-105 274l14-137-14-132q0-6-6-6-6 0-7 6l-12 132 12 137q1 6 7 6 6 0 6-6z m52 4l13-141-13-136q-1-8-7-8-8 0-8 8l-11 136 11 141q0 7 8 7 6 0 7-7z m53-11l12-130-12-137q-1-9-9-9-3 0-6 2t-2 7l-12 137 12 130q0 4 2 6t6 3q8 0 9-9z m214-265z m-162 347l12-212-12-137q0-4-3-7t-6-3q-9 0-10 10l-10 137 10 212q1 10 10 10 4 0 6-3t3-7z m53 48l10-261-10-136q0-5-3-8t-8-3q-10 0-11 11l-9 136 9 261q1 11 11 11 5 0 8-4t3-7z m54 22l10-282-10-135q-1-12-12-12-10 0-12 12l-9 135 9 282q0 5 4 9t8 4q5 0 9-4t3-9z m219-414z m-110 417l8-285-8-133q0-6-5-10t-9-4-10 3-4 11l-8 133 8 285q0 6 4 10t10 3 9-3 5-10z m55-11l8-275-8-131q0-6-5-11t-10-4-11 4-5 11l-6 131 6 275q1 7 5 11t11 5 10-5 5-11z m118-275l-8-129q0-7-5-12t-12-5-12 5-6 12l-3 64-3 65 6 355v2q1 8 7 13 5 4 11 4 5 0 8-3 8-4 9-14z m621 11q0-65-47-111t-111-46h-439q-7 1-12 6t-5 12v502q0 13 16 18 47 19 101 19 108 0 188-73t89-181q30 12 62 12 65 0 111-46t47-112z" horiz-adv-x="1285.7" />

<glyph glyph-name="vine" unicode="&#xf1ca;" d="M835 389v-111q-56-13-110-13-36-76-92-151t-102-120-71-60q-45-25-91 2-15 9-33 24t-48 47-57 72-60 102-59 136-51 176-39 218h158q14-122 39-223t58-177 68-131 78-109q94 94 160 227-79 40-124 122t-45 186q0 107 58 176t158 68q99 0 152-59t53-166q0-89-32-159-4-1-11-2t-25-1-36 3-34 14-28 29q17 58 17 103 0 48-16 73t-44 26q-30 0-48-28t-18-78q0-104 59-164t149-60q35 0 67 8z" horiz-adv-x="857.1" />

<glyph glyph-name="lifebuoy" unicode="&#xf1cd;" d="M500 850q102 0 194-40t160-106 106-160 40-194-40-194-106-160-160-106-194-40-194 40-160 106-106 160-40 194 40 194 106 160 160 106 194 40z m0-71q-106 0-201-51l108-108q46 16 93 16t93-16l109 108q-96 51-202 51z m-378-630l108 108q-16 46-16 93t16 93l-108 109q-51-96-51-202t51-201z m378-228q106 0 202 51l-109 108q-46-16-93-16t-93 16l-108-108q95-51 201-51z m0 215q89 0 152 63t62 151-62 152-152 62-151-62-63-152 63-151 151-63z m270 121l108-108q51 95 51 201t-51 202l-108-109q16-46 16-93t-16-93z" horiz-adv-x="1000" />

<glyph glyph-name="slideshare" unicode="&#xf1e7;" d="M487 437q0-46-35-79t-85-34-85 34-36 79q0 47 36 80t85 33 85-33 35-80z m280 0q0-46-35-79t-85-34q-50 0-85 34t-36 79q0 47 36 80t85 33q50 0 85-33t35-80z m126-100v372q0 48-18 69t-62 20h-620q-47 0-63-19t-17-70v-376q24-13 50-22t45-16 45-10 40-6 39-2 32-1 32 2 25 1q38 0 53-15 3-4 5-5 15-14 34-29 4 51 66 49 3 0 21-1t24-1 25-1 30 1 30 2 34 5 35 7 37 11 38 15 40 20z m91 2q-68-83-208-140 47-159-13-260-36-63-102-82-58-18-101 8-48 28-46 92l-1 182v0q-4 1-13 3t-13 3l-1-188q2-64-46-92-44-26-102-8-66 20-102 83-58 101-12 259-140 57-208 140-14 21-2 36t33-1q3-1 7-4t6-4v387q0 40 26 69t64 28h701q37 0 64-28t26-69v-387l12 8q21 15 33 1t-2-36z" horiz-adv-x="1000" />

<glyph glyph-name="yelp" unicode="&#xf1e9;" d="M431 114v-71q0-163-3-170-7-18-28-22-31-6-102 21t-90 49q-8 9-10 20 0 7 2 15 3 6 19 26t101 121q1 0 34 39 8 11 22 14t28-2q13-6 20-17t7-23z m-83 140q-1-31-29-39l-67-22q-153-49-163-49-19 1-30 20-6 14-9 42-5 42 0 93t17 69 31 18q8 0 113-43 40-16 64-26l47-19q13-5 20-17t6-27z m461-166q-4-30-51-90t-75-70q-21-8-36 3-7 6-102 161l-27 43q-7 11-6 25t11 26q19 24 46 14 1 0 67-22 113-37 135-44t26-12q16-12 12-34z m-375 353q3-57-30-68-32-10-64 40l-210 333q-5 20 10 35 23 24 116 50t125 17q23-5 28-25 1-10 12-170t13-212z m370-60q1-22-15-33-8-6-183-48-38-9-51-13l0 1q-13-3-25 2t-21 18q-17 26 0 49 1 0 42 57 70 95 84 114t19 21q15 11 36 1 27-12 68-74t46-94v-1z" horiz-adv-x="857.1" />

<glyph glyph-name="paypal" unicode="&#xf1ed;" d="M848 490q10-47-3-114-48-248-315-248h-24q-14 0-25-9t-13-24l-3-11-30-193-1-8q-3-15-14-24t-25-9h-140q-12 0-18 8t-5 20q5 32 14 94t15 94 15 93 15 94q3 21 24 21h73q75-2 132 11 98 22 160 81 57 53 87 137 13 39 19 74 1 4 2 4t2 1 3-2q44-33 55-90z m-96 157q0-60-26-132-45-130-168-176-64-22-141-23 0-1-50-1l-51 1q-55 0-65-54-2-4-48-295 0-6-7-6h-164q-12 0-21 9t-6 22l130 821q2 16 15 26t29 11h333q19 0 55-7t62-18q60-23 91-69t32-109z" horiz-adv-x="857.1" />

<glyph glyph-name="chart-area" unicode="&#xf1fe;" d="M1143-7v-72h-1143v858h71v-786h1072z m-214 571l142-500h-928v322l250 321 321-321z" horiz-adv-x="1142.9" />

<glyph glyph-name="chart-pie" unicode="&#xf200;" d="M429 353l304-304q-59-61-138-94t-166-34q-117 0-216 58t-155 156-58 215 58 215 155 156 216 58v-426z m104-3h431q0-88-33-167t-94-138z m396 71h-429v429q117 0 215-57t156-156 58-216z" horiz-adv-x="1000" />

<glyph glyph-name="chart-line" unicode="&#xf201;" d="M1143-7v-72h-1143v858h71v-786h1072z m-72 696v-242q0-12-10-17t-20 4l-68 68-353-353q-6-6-13-6t-13 6l-130 130-232-233-107 108 327 326q5 6 12 6t13-6l130-130 259 259-67 68q-9 8-5 19t17 11h243q7 0 12-5t5-13z" horiz-adv-x="1142.9" />

<glyph glyph-name="lastfm" unicode="&#xf202;" d="M721 457q0-3 6-23 5-16 14-27t22-19 25-11 31-10q181-50 181-185 0-81-59-135t-142-54q-33 0-62 10t-51 26-43 41-35 49-30 58-24 57-22 60-20 53q-18 45-35 74t-41 54-58 36-79 11q-53 0-102-31t-77-81-28-103q0-89 59-156t147-67q99 0 144 53 31 36 46 65l47-85q-8-19-24-39l0 0q-73-85-216-85-82 0-151 44t-106 116-38 153q0 59 24 115t65 98 96 68 114 26q49 0 89-11t69-28 53-44 40-56 33-65 28-69 28-73 31-71q53-112 130-112 45 0 77 27t32 72q0 24-11 40t-28 26-40 18-47 15-49 19-45 29-37 45-21 69q-2 9-2 18 0 62 49 107t111 44q43-2 67-8t50-30h0q6-6 13-14t14-20 11-15l-72-55q-15 27-30 39v0q-13 12-55 12-27 0-46-18t-20-47z" horiz-adv-x="1000" />

<glyph glyph-name="forumbee" unicode="&#xf211;" d="M521 766q-177-67-310-202t-200-313q-11 50-11 98 0 117 57 215t156 156 214 57q46 0 94-11z m150-66q52-36 92-87-217-63-377-223t-221-378q-52 41-86 91 62 215 220 374t372 223z m-409-745q65 199 212 348t346 214q22-51 30-109-163-67-288-192t-191-290q-58 8-109 29z m595-32q-108 28-205 64-75-47-161-59 60 114 152 206t206 154q-11-85-56-158 36-98 64-207z" horiz-adv-x="857.1" />

<glyph glyph-name="pinterest" unicode="&#xf231;" d="M0 517q0 60 21 113t58 93 85 69 103 44 113 14q88 0 164-37t123-108 47-160q0-54-10-105t-34-99-56-83-80-58-106-21q-38 0-75 18t-54 49q-5-22-15-63t-14-53-11-40-15-39-17-35-26-44-35-48l-7-3-5 6q-9 88-9 105 0 51 12 115t37 161 29 113q-18 36-18 94 0 47 29 87t74 41q34 0 53-23t19-57q0-37-24-106t-25-105q0-35 25-58t61-23q31 0 57 14t44 38 31 53 21 61 11 62 4 56q0 96-61 150t-160 54q-111 0-186-72t-75-183q0-25 7-48t15-36 15-26 7-17q0-15-8-40t-21-25q-1 0-9 1-29 9-51 31t-34 53-18 60-6 60z" horiz-adv-x="714.3" />

</font>
</defs>
</svg>
